<?xml version="1.0" standalone="no"?>
<!DOCTYPE svg PUBLIC "-//W3C//DTD SVG 1.1//EN" "http://www.w3.org/Graphics/SVG/1.1/DTD/svg11.dtd" >
<svg xmlns="http://www.w3.org/2000/svg">
<metadata>Generated by IcoMoon</metadata>
<defs>
<font id="icomoon" horiz-adv-x="1024">
<font-face units-per-em="1024" ascent="960" descent="-64" />
<missing-glyph horiz-adv-x="1024" />
<glyph unicode="&#x20;" horiz-adv-x="512" d="" />
<glyph unicode="&#xe900;" glyph-name="checkbox" d="M139.636-64h744.727c77.119 0 139.636 62.517 139.636 139.636v0 744.727c0 77.119-62.517 139.636-139.636 139.636v0h-744.727c-77.119 0-139.636-62.517-139.636-139.636v0-744.727c0-77.119 62.517-139.636 139.636-139.636v0zM93.091 820.364c0 25.706 20.839 46.545 46.545 46.545v0h744.727c25.706 0 46.545-20.839 46.545-46.545v0-744.727c0-25.706-20.839-46.545-46.545-46.545v0h-744.727c-25.706 0-46.545 20.839-46.545 46.545v0z" />
<glyph unicode="&#xe901;" glyph-name="checkbox-checked" d="M139.636-64h744.727c77.119 0 139.636 62.517 139.636 139.636v0 744.727c0 77.119-62.517 139.636-139.636 139.636v0h-744.727c-77.119 0-139.636-62.517-139.636-139.636v0-744.727c0-77.119 62.517-139.636 139.636-139.636v0zM93.091 820.364c0 25.706 20.839 46.545 46.545 46.545v0h744.727c25.706 0 46.545-20.839 46.545-46.545v0-744.727c0-25.706-20.839-46.545-46.545-46.545v0h-744.727c-25.706 0-46.545 20.839-46.545 46.545v0zM824.32 647.68l-66.095 66.095-385.862-386.327-106.589 107.055-66.095-66.095 172.684-172.218 451.956 451.491z" />
<glyph unicode="&#xe902;" glyph-name="checked" d="M512-64c282.77 0 512 229.23 512 512s-229.23 512-512 512c-282.77 0-512-229.23-512-512v0c0-282.77 229.23-512 512-512v0zM265.775 434.502l106.589-107.055 385.862 386.327 66.095-66.095-451.956-451.491-172.684 172.218z" />
<glyph unicode="&#xe903;" glyph-name="checked-2" d="M384 337.493l-97.707 98.133-60.587-60.587 158.293-157.867 414.293 413.867-60.587 60.587-353.707-354.133zM512 960c-282.77 0-512-229.23-512-512s229.23-512 512-512c282.77 0 512 229.23 512 512v0c0 282.77-229.23 512-512 512v0zM512 21.333c-235.641 0-426.667 191.025-426.667 426.667s191.025 426.667 426.667 426.667c235.641 0 426.667-191.025 426.667-426.667v0c0-235.641-191.025-426.667-426.667-426.667v0z" />
<glyph unicode="&#xe904;" glyph-name="checked-3" horiz-adv-x="1275" d="M1275.237 876.056l-83.944 83.944-846.586-846.586-252.428 310.177-92.279-75.609 335.777-411.981 939.46 940.056z" />
<glyph unicode="&#xe905;" glyph-name="chevron_left" horiz-adv-x="683" d="M550.743 960l-515.631-515.631 515.631-508.369 101.674 101.675-413.958 406.694 413.958 413.957-101.674 101.674z" />
<glyph unicode="&#xe906;" glyph-name="chevron_right" horiz-adv-x="683" d="M156.757-64l515.631 515.631-515.631 508.369-101.674-101.674 413.957-406.695-413.957-413.956 101.674-101.675z" />
<glyph unicode="&#xe907;" glyph-name="close" d="M87.985-64l424.327 423.703 423.703-423.703 87.985 87.985-423.703 423.703 423.703 424.327-87.985 87.985-423.703-423.703-424.327 423.703-87.985-87.985 423.703-424.327-423.703-423.703 87.985-87.985z" />
<glyph unicode="&#xe908;" glyph-name="dot-circle" d="M960 448c0-247.424-200.576-448-448-448s-448 200.576-448 448c0 247.424 200.576 448 448 448s448-200.576 448-448z" />
<glyph unicode="&#xe909;" glyph-name="vertified" d="M958.835 960l-155.328-149.68-61.843 62.248-67.040-67.475 126.995-127.821 222.368 213.828-65.152 68.9zM802.579 78.541c0 131.142-105.747 237.587-236.051 237.587h-330.475c-130.302 0-236.054-106.445-236.054-237.587v-142.554h802.579v142.554zM708.16 31.021h-613.739v47.52c0 78.4 63.734 142.547 141.633 142.547h330.475c77.9 0 141.631-64.147 141.631-142.547v-47.52zM188.875 577.484c0-117.843 95.366-213.828 212.448-213.828s212.448 95.985 212.448 213.828c0 117.843-95.365 213.828-212.448 213.828s-212.448-95.985-212.448-213.828zM519.35 577.484c0-65.574-52.876-118.794-118.027-118.794s-118.026 53.22-118.026 118.794c0 65.574 52.876 118.794 118.026 118.794s118.027-53.22 118.027-118.794z" />
<glyph unicode="&#xe90a;" glyph-name="shield" d="M469.091 388.173l-129.54 123.306-55.176-57.966 189.206-180.105 288.294 320.991-59.539 53.476-233.245-259.702zM840.954 829.616c-96.998 17.384-186.336 70.36-230.949 100.39-29.152 19.622-63.054 29.994-98.044 29.994s-68.894-10.372-98.044-29.992c-44.616-30.030-133.948-83.008-230.952-100.392-57.452-10.296-99.152-60.004-99.152-118.194v-241.42c0-79.754 22.314-157.496 66.318-231.077 34.428-57.562 82.128-112.576 141.776-163.514 100.294-85.651 199.608-130.31 203.784-132.173l16.268-7.238 16.268 7.238c4.178 1.856 103.49 46.522 203.786 132.173 59.642 50.938 107.347 105.952 141.773 163.514 44.006 73.574 66.317 151.324 66.317 231.077v241.418c0.006 58.192-41.696 107.9-99.149 118.196zM860.083 470c0-118.9-60.070-230.749-178.534-332.445-68.867-59.117-138.782-97.651-169.585-113.286-70.804 35.974-348.124 193.075-348.124 445.731v241.42c0 19.39 13.98 35.97 33.242 39.422 111.436 19.97 211.686 79.232 261.523 112.776 15.894 10.7 34.344 16.356 53.356 16.356s37.464-5.656 53.356-16.354c49.838-33.546 150.088-92.804 261.525-112.774 19.258-3.452 33.242-20.032 33.242-39.422v-241.424z" />
<glyph unicode="&#xe90b;" glyph-name="phone-call" d="M424.022 360.010c-97.739 97.74-119.808 195.478-124.787 234.637-1.391 10.828 2.335 21.686 10.081 29.379l79.096 79.060c11.635 11.628 13.699 29.749 4.979 43.696l-125.935 195.549c-9.648 15.444-29.459 21.018-45.744 12.871l-202.17-95.215c-13.17-6.484-20.916-20.477-19.421-35.081 10.593-100.634 54.466-348.019 297.578-591.146 243.112-243.13 490.461-286.989 591.146-297.581 14.605-1.491 28.595 6.253 35.085 19.424l95.213 202.17c8.115 16.25 2.579 36.006-12.8 45.67l-195.552 125.9c-13.939 8.73-32.058 6.68-43.693-4.943l-79.059-79.094c-7.693-7.744-18.554-11.475-29.382-10.080-39.156 4.979-136.895 27.046-234.634 124.785zM812.134 412.679c-19.501 0-35.309 15.809-35.309 35.31-0.166 146.192-118.637 264.662-264.828 264.828-19.501 0-35.311 15.809-35.311 35.311s15.809 35.31 35.311 35.31c185.18-0.204 335.247-150.27 335.445-335.448 0-19.501-15.808-35.31-35.309-35.31zM988.685 412.69c-19.501 0-35.309 15.809-35.309 35.31-0.269 243.654-197.722 441.107-441.378 441.379-19.501 0-35.311 15.809-35.311 35.31s15.809 35.31 35.311 35.31c282.639-0.311 511.688-229.359 512.002-512 0-9.365-3.725-18.346-10.342-24.968-6.624-6.622-15.603-10.342-24.973-10.342z" />
<glyph unicode="&#xe90c;" glyph-name="Arrow-down" horiz-adv-x="1609" d="M87.636 720.72l689.968-733.149 699.824 733.149-137.993 144.565-561.831-588.585-551.974 588.585-137.994-144.565z" />
<glyph unicode="&#xe90d;" glyph-name="mail" horiz-adv-x="1432" d="M88.454 326.978l40.577-86.986 75.622 35.246 567.507-46.51 329.162 464.441 207.306-444.416-637.435-297.12h197.416l550.905 256.781-283.19 606.991-75.597-35.227-329.141-464.458-567.512 46.508-32.208 69.008 972.155 453.456-35.124 75.311-1047.895-488.425 67.451-144.597zM236.962 205.949l-75.602-35.246 102.177-219.072h92.083l-118.658 254.317zM1432.168-35.106h-1432.168v-26.488h1432.168v26.488z" />
<glyph unicode="&#xe90e;" glyph-name="mail-checked" horiz-adv-x="1022" d="M853.333 618.667v213.333c0 70.692-57.308 128-128 128v0h-597.333c-70.692 0-128-57.308-128-128v0-384c0-70.692 57.308-128 128-128v0h256v85.333h-256c-23.564 0-42.667 19.103-42.667 42.667v0 375.040l261.12-256c20.734-19.894 48.937-32.143 80-32.143s59.265 12.249 80.040 32.181l-0.040-0.038 261.547 250.453v-198.827zM447.147 629.76c-5.374-5.643-12.944-9.152-21.333-9.152s-15.959 3.509-21.322 9.14l-0.011 0.012-249.6 244.907h549.547zM725.333 533.333c-164.949 0-298.667-133.718-298.667-298.667s133.718-298.667 298.667-298.667c164.949 0 298.667 133.718 298.667 298.667v0c0 164.949-133.718 298.667-298.667 298.667v0zM725.333 21.333c-117.821 0-213.333 95.513-213.333 213.333s95.513 213.333 213.333 213.333c117.821 0 213.333-95.513 213.333-213.333v0c0-117.821-95.513-213.333-213.333-213.333v0zM680.96 209.493l-55.467 55.467-60.16-60.587 115.627-115.2 200.533 200.533-60.16 60.587-140.373-140.8z" />
<glyph unicode="&#xe90f;" glyph-name="mail-warning" d="M128 960c-70.692 0-128-57.308-128-128v0-384c0-70.692 57.308-128 128-128v0h256v85.333h-256c-23.564 0-42.667 19.103-42.667 42.667v0 375.040l261.12-256c20.734-19.894 48.937-32.143 80-32.143s59.265 12.249 80.040 32.181l-0.040-0.038 261.547 250.453v-198.827h85.333v213.333c0 70.692-57.308 128-128 128v0zM447.147 629.76c-5.374-5.643-12.944-9.152-21.333-9.152s-15.959 3.509-21.322 9.14l-0.011 0.012-249.6 244.907h549.547zM725.333 533.333c-164.949 0-298.667-133.718-298.667-298.667s133.718-298.667 298.667-298.667c164.949 0 298.667 133.718 298.667 298.667v0c0 164.949-133.718 298.667-298.667 298.667v0zM725.333 21.333c-117.821 0-213.333 95.513-213.333 213.333s95.513 213.333 213.333 213.333c117.821 0 213.333-95.513 213.333-213.333v0c0-117.821-95.513-213.333-213.333-213.333v0zM682.667 405.333h85.333v-85.333h-85.333v85.333zM682.667 277.333h85.333v-170.667h-85.333v170.667z" />
<glyph unicode="&#xe910;" glyph-name="calendar" d="M904 880h-48v80h-80v-80h-528v80h-80v-80h-48c-66.168 0-120-53.832-120-120v-704c0-66.17 53.832-120 120-120h784c66.17 0 120 53.83 120 120v704c0 66.168-53.83 120-120 120zM944 56c0-22.054-17.946-40-40-40h-784c-22.056 0-40 17.946-40 40v528h864v-528zM944 664h-864v96c0 22.056 17.944 40 40 40h48v-80h80v80h528v-80h80v80h48c22.054 0 40-17.944 40-40v-96zM232 500h-80v-80h80v80zM392 500h-80v-80h80v80zM552 500h-80v-80h80v80zM712 500h-80v-80h80v80zM872 500h-80v-80h80v80zM232 340h-80v-80h80v80zM392 340h-80v-80h80v80zM552 340h-80v-80h80v80zM712 340h-80v-80h80v80zM232 180h-80v-80h80v80zM392 180h-80v-80h80v80zM552 180h-80v-80h80v80zM712 180h-80v-80h80v80zM872 340h-80v-80h80v80z" />
<glyph unicode="&#xe911;" glyph-name="remove" d="M1024 448c0 282.77-229.23 512-512 512s-512-229.23-512-512c0-282.77 229.23-512 512-512v0c282.77 0 512 229.23 512 512v0zM744.727 283.229l-67.956-67.956-164.771 167.098-164.771-167.098-65.629 67.956 164.771 164.771-164.771 164.771 65.629 65.629 164.771-164.771 164.771 164.771 67.956-65.629-167.098-164.771z" />
<glyph unicode="&#xe912;" glyph-name="star" horiz-adv-x="1077" d="M205.785-64l332.8 241.723 332.308-241.723-127.015 390.892 332.8 242.215h-411.077l-127.015 390.892-127.508-390.892h-411.077l332.8-242.215zM304.246 470.646h178.708l22.154 67.938 33.477 102.892 33.477-102.892 21.662-67.938h180.185l-87.631-64-58.092-41.846 22.154-67.938 33.477-102.892-145.231 105.354-58.092-41.846-86.646-63.508 33.477 102.892 22.154 67.938-58.092 41.846z" />
<glyph unicode="&#xe913;" glyph-name="arrow-down" d="M511.999 156.146c-18.352 0-36.702 7.007-50.694 20.992l-440.297 440.301c-28.009 28.009-28.009 73.42 0 101.417 27.997 27.997 73.399 27.997 101.41 0l389.58-389.603 389.583 389.589c28.009 27.997 73.406 27.997 101.401 0 28.022-27.997 28.022-73.408 0-101.417l-440.29-440.301c-13.999-13.987-32.349-20.979-50.694-20.979z" />
<glyph unicode="&#xe914;" glyph-name="bookmark-1" d="M810.765 960h-594.14c-48.388 0-90.876-39.807-90.876-86.925v-878.906c0-15.776 4.39-28.922 11.465-39.072 8.46-12.141 22.083-19.104 36.692-19.098 13.811 0 28.516 6.15 42.095 17.747l265.817 225.69c8.209 7.014 20.002 11.034 32.264 11.034 12.256 0 24.025-4.019 32.259-11.053l264.929-225.638c13.626-11.629 27.315-17.786 41.107-17.786 23.315 0 46.042 17.984 46.042 58.17v878.912c0 47.118-39.27 86.925-87.654 86.925z" />
<glyph unicode="&#xe915;" glyph-name="close-small" d="M87.415-64l424.585 424.585 424.585-424.585 87.415 87.415-424.585 424.585 424.585 424.585-87.415 87.415-424.585-424.585-424.585 424.585-87.415-87.415 424.585-424.585-424.585-424.585 87.415-87.415z" />
<glyph unicode="&#xe916;" glyph-name="bookmark-white-2" d="M931.991 926.151c-8.802 12.642-20.655 21.887-35.533 27.752-9.474 4.056-19.405 6.087-29.786 6.087v0.009h-709.293c-10.376 0-20.296-2.032-29.774-6.088-14.887-5.86-26.735-15.117-35.532-27.752-8.795-12.635-13.199-26.616-13.199-41.961v-872.399c0-15.349 4.404-29.325 13.199-41.971 8.797-12.634 20.645-21.888 35.532-27.746 9.468-4.055 19.398-6.082 29.774-6.082 21.214 0 39.929 7.447 56.178 22.325l298.473 286.98 298.473-286.987c15.795-14.415 34.519-21.636 56.169-21.636 11.283 0 21.212 1.792 29.786 5.402 14.878 5.858 26.731 15.113 35.533 27.763 8.794 12.629 13.188 26.609 13.188 41.954v872.387c0.002 15.344-4.401 29.326-13.186 41.961zM858.551 32.796l-346.522 332.297-60.233-57.517-286.284-274.78v840.564h693.039v-840.564z" />
<glyph unicode="&#xe917;" glyph-name="bookmark-white-7" d="M931.994 926.151c-8.806 12.642-20.659 21.887-35.533 27.752-9.478 4.056-19.405 6.088-29.786 6.088v0.009h-709.295c-10.376 0-20.296-2.032-29.774-6.088-14.887-5.86-26.735-15.117-35.532-27.752-8.795-12.635-13.199-26.616-13.199-41.96v-872.399c0-15.347 4.404-29.325 13.199-41.971 8.797-12.634 20.644-21.888 35.532-27.744 9.468-4.058 19.398-6.086 29.774-6.086 21.213 0 39.929 7.45 56.177 22.33l298.472 286.976 298.474-286.982c15.795-14.419 34.522-21.638 56.166-21.638 11.283 0 21.216 1.792 29.786 5.402 14.88 5.856 26.733 15.11 35.533 27.763 8.794 12.627 13.19 26.611 13.19 41.952v872.389c0 15.344-4.403 29.326-13.184 41.961zM858.554 32.794l-346.525 332.3-60.232-57.516-286.284-274.784v840.566h693.041v-840.566z" />
<glyph unicode="&#xe918;" glyph-name="back" horiz-adv-x="1280" d="M1163.552 544.678l1.926-0.42h-824.97l259.34 259.912c12.7 12.689 19.666 29.879 19.666 47.921s-6.966 35.111-19.666 47.831l-40.353 40.373c-12.689 12.689-29.598 19.706-47.63 19.706-18.042 0-34.961-6.966-47.651-19.655l-444.559-444.519c-12.739-12.74-19.706-29.709-19.655-47.761-0.050-18.152 6.916-35.132 19.655-47.851l444.559-444.56c12.69-12.678 29.599-19.654 47.651-19.654 18.032 0 34.941 6.989 47.63 19.654l40.353 40.378c12.7 12.666 19.666 29.587 19.666 47.629 0 18.029-6.966 34.054-19.666 46.739l-262.267 261.362h826.892c37.158 0 68.378 32.024 68.378 69.16v57.102c0 37.136-32.141 66.654-69.299 66.654z" />
<glyph unicode="&#xe919;" glyph-name="hide" horiz-adv-x="1170" d="M576.286 633.345l167.526-167.526 0.797 8.775c0 88.018-71.53 159.548-159.548 159.548l-8.775-0.797zM585.073 740.509c146.787 0 265.915-119.131 265.915-265.915 0-34.303-6.912-67.011-18.878-97.058l155.56-155.562c80.304 67.013 143.594 153.7 182.682 252.62-92.27 233.471-319.093 398.87-585.276 398.87-74.457 0-145.72-13.294-211.933-37.227l114.875-114.608c30.045 11.699 62.752 18.879 97.055 18.879zM53.182 885.442l145.456-145.456c-87.752-68.606-157.155-159.815-198.638-265.381 92.007-233.471 319.097-398.874 585.010-398.874 82.434 0 161.142 15.96 233.209 44.946l22.601-22.608 155.026-155.29 67.811 67.54-942.668 942.93-67.808-67.808zM347.284 591.606l82.167-82.167c-2.393-11.435-3.988-22.867-3.988-34.834 0-88.019 71.53-159.549 159.548-159.549 11.966 0 23.401 1.596 34.57 3.989l82.167-82.167c-35.367-17.553-74.721-28.188-116.737-28.188-146.784 0-265.914 119.13-265.914 265.915 0 42.013 10.637 81.369 28.187 117.001z" />
<glyph unicode="&#xe91a;" glyph-name="magnifying-glass-1" d="M683.974 842.799c-156.213 156.213-410.461 156.213-566.673 0-156.179-156.246-156.179-410.46 0-566.706 139.111-139.078 355.77-153.978 511.881-45.378 3.284-15.543 10.802-30.375 22.892-42.464l227.5-227.495c33.152-33.084 86.724-33.084 119.706 0 33.118 33.118 33.118 86.69 0 119.706l-227.497 227.565c-12.022 11.988-26.888 19.539-42.431 22.824 108.668 156.145 93.768 372.769-45.377 511.949zM612.149 347.917c-116.626-116.626-306.431-116.626-423.024 0-116.558 116.626-116.558 306.398 0 423.024 116.593 116.592 306.398 116.592 423.024 0 116.626-116.626 116.626-306.398 0-423.024z" />
<glyph unicode="&#xe91b;" glyph-name="matched" horiz-adv-x="1170" d="M1126.78 901.043c-48.969 39.778-119.428 34.031-157.403-12.728l-500.654-617.25-261.32 339.577c-38.981 50.612-111.626 60.080-162.24 21.143-50.66-38.959-60.124-111.626-21.143-162.308l350.753-455.785c38.981-50.615 111.648-60.101 162.285-21.146 14.437 11.11 25.114 25.139 32.685 40.463l577.043 711.361c37.954 46.827 28.987 116.94-20.005 156.673z" />
<glyph unicode="&#xe91c;" glyph-name="show" horiz-adv-x="1365" d="M682.515 634.167c-102.711 0-186.181-83.471-186.181-186.181s83.47-186.181 186.181-186.181c102.711 0 186.179 83.47 186.179 186.181s-83.471 186.181-186.179 186.181zM682.668 913.458c-310.304 0-575.303-193.007-682.668-465.455 107.366-272.445 372.364-465.454 682.668-465.454 310.612 0 575.299 193.009 682.665 465.454-107.366 272.448-372.053 465.455-682.665 465.455zM682.668 137.702c-171.288 0-310.304 139.017-310.304 310.304s139.017 310.302 310.304 310.302c171.288 0 310.304-139.017 310.304-310.304s-139.017-310.301-310.304-310.301z" />
<glyph unicode="&#xe91d;" glyph-name="Ellipse-46" d="M960 448c0-247.424-200.576-448-448-448s-448 200.576-448 448c0 247.424 200.576 448 448 448s448-200.576 448-448z" />
<glyph unicode="&#xe91e;" glyph-name="trust" d="M182-64h750v904h-60v120h-690c-49.625 0-90-40.375-90-90v-844.003c0-49.619 40.375-89.997 90-89.997zM152 25.997v759.16c9.391-3.329 19.484-5.156 30-5.156h30v-784h-30c-16.539 0-30 13.459-30 29.997zM872-4h-600v784h300v-326.054l120 80 120-80v326.054h60v-784zM632 780h120v-213.946l-60 40-60-40v213.946zM182 900h630v-60c-35.968 0-605.14 0-630 0-16.539 0-30 13.461-30 30s13.461 30 30 30z" />
<glyph unicode="&#xe91f;" glyph-name="hide1" horiz-adv-x="1081" d="M164.529 267.449l67.438 67.438c-40.544 34.443-76.869 71.223-109.782 110.932l-1.179 1.465c108.092 130.092 228.14 209.965 352.493 230.532-102.674-28.079-176.973-120.325-177.442-230v-0.054c0.221-15.872 1.778-31.227 4.563-46.149l-0.259 1.669 360.146 360.146c-36.236 9.429-77.898 14.992-120.81 15.304l-0.195 0.001c-186.53 0.957-365.885-105.7-517.5-302.274l-22.001-29.175 22.001-28.697c42.933-56.348 89.725-105.871 141.234-150.053l1.294-1.084zM844.645 682.119l209.965 210.444-67.438 67.438-956.562-956.562 67.438-67.438 227.662 227.184c62.967-29.827 136.753-47.415 214.605-47.828l0.144-0.001c187.965 0 367.32 104.744 518.457 303.709l22.479 28.697-22.479 29.175c-60.038 80.15-130.887 148.11-211.24 203.22l-3.030 1.963zM408.452 245.926c19.521-12.628 42.129-22.787 66.243-29.271l1.673-0.383c-29.465 5.248-55.33 12.378-80.18 21.598l3.177-1.032zM483.064 214.838v0zM578.72 214.838c111.784 21.245 195.221 118 195.617 234.315v0.043c-0.025 47.092-13.935 90.93-37.858 127.648l0.552-0.903 38.262 38.262c71.676-45.703 132.667-100.606 183.48-164.018l1.137-1.468c-116.222-143.006-246.793-222.879-381.19-235.314z" />
<glyph unicode="&#xe920;" glyph-name="facebook" d="M682.539 789.973h93.483v162.816c-16.128 2.219-71.595 7.211-136.192 7.211-134.784 0-227.114-84.779-227.114-240.597v-143.403h-148.736v-182.016h148.736v-457.984h182.357v457.941h142.72l22.656 182.016h-165.419v125.397c0.043 52.608 14.208 88.619 87.509 88.619z" />
<glyph unicode="&#xe921;" glyph-name="instagram" d="M1023.010 658.941c-2.398 54.409-11.196 91.815-23.799 124.227-13.005 34.405-33.007 65.208-59.217 90.815-25.604 26.005-56.61 46.212-90.62 59.012-32.597 12.604-69.807 21.403-124.22 23.802-54.814 2.602-72.213 3.204-211.243 3.204-139.027 0-156.428-0.602-211.040-3.001-54.409-2.399-91.815-11.205-124.22-23.802-34.413-13.003-65.216-33.006-90.822-59.215-26.005-25.606-46.204-56.613-59.012-90.619-12.604-32.608-21.403-69.81-23.802-124.219-2.602-54.816-3.204-72.218-3.204-211.243 0-139.029 0.602-156.429 3.001-211.042 2.399-54.409 11.205-91.814 23.809-124.228 13.003-34.406 33.202-65.207 59.207-90.816 25.606-26.005 56.612-46.212 90.619-59.012 32.608-12.604 69.81-21.402 124.227-23.799 54.604-2.406 72.014-2.999 211.040-2.999 139.029 0 156.429 0.593 211.042 2.999 54.409 2.398 91.814 11.196 124.22 23.799 68.817 26.607 123.226 81.020 149.833 149.828 12.595 32.606 21.402 69.82 23.804 124.228 2.398 54.613 2.999 72.013 2.999 211.042 0 139.025-0.205 156.427-2.603 211.039zM930.799 240.858c-2.206-50.010-10.607-77.013-17.609-95.019-17.203-44.608-52.608-80.013-97.22-97.22-18.001-7.002-45.205-15.403-95.019-17.596-54.012-2.406-70.208-3.004-206.835-3.004-136.629 0-153.031 0.597-206.846 3.004-50.010 2.193-77.015 10.594-95.019 17.596-22.199 8.205-42.407 21.21-58.808 38.212-17.003 16.602-30.006 36.608-38.211 58.807-7.001 18.001-15.401 45.21-17.597 95.019-2.407 54.012-3.001 70.217-3.001 206.844 0 136.629 0.594 153.030 3.001 206.838 2.196 50.010 10.596 77.015 17.597 95.019 8.205 22.208 21.207 42.407 38.414 58.816 16.597 17.003 36.601 30.006 58.808 38.202 18.004 7.002 45.212 15.401 95.019 17.605 54.010 2.399 70.217 3.001 206.835 3.001 136.832 0 153.033-0.602 206.848-3.001 50.010-2.204 77.013-10.604 95.019-17.605 22.199-8.197 42.406-21.199 58.807-38.202 17.003-16.605 30.003-36.609 38.208-58.816 7.002-18.004 15.403-45.204 17.609-95.019 2.398-54.010 2.999-70.209 2.999-206.838 0-136.627-0.602-152.631-2.999-206.643zM513.907 710.959c-145.225 0-263.053-117.82-263.053-263.052 0-145.229 117.828-263.049 263.053-263.049 145.229 0 263.049 117.82 263.049 263.049 0 145.232-117.82 263.052-263.049 263.052zM513.907 277.274c-94.215 0-170.636 76.412-170.636 170.633 0 94.223 76.421 170.636 170.636 170.636 94.221 0 170.633-76.413 170.633-170.636 0-94.221-76.412-170.633-170.633-170.633zM848.789 721.339c0-33.913-27.499-61.411-61.419-61.411-33.916 0-61.414 27.498-61.414 61.411 0 33.921 27.499 61.411 61.414 61.411 33.92 0 61.419-27.49 61.419-61.411z" />
<glyph unicode="&#xe922;" glyph-name="linkedin" d="M320.016 114.001h-140v451.999h140v-451.999zM333.984 710.008c0 45.258-36.719 81.992-81.953 81.992-45.406 0-82.031-36.734-82.031-81.992 0-45.274 36.625-82.008 82.031-82.008 45.234 0 81.953 36.734 81.953 82.008zM843.998 362.671c0 121.335-25.63 211.329-167.373 211.329-68.109 0-113.826-34.062-132.493-69.484h-0.132v61.484h-136v-451.999h136v224.422c0 58.773 14.959 115.708 87.812 115.708 71.859 0 74.189-67.209 74.189-119.445v-220.685h137.997v248.67zM1024 56v784c0 66.172-53.828 120-120 120h-784c-66.172 0-120-53.828-120-120v-784c0-66.172 53.828-120 120-120h784c66.172 0 120 53.828 120 120zM904 880c22.054 0 40-17.945 40-40v-784c0-22.054-17.946-40-40-40h-784c-22.055 0-40 17.946-40 40v784c0 22.055 17.945 40 40 40h784z" />
<glyph unicode="&#xe923;" glyph-name="youtube" d="M971.721 687.949c-11.063 41.127-43.49 73.547-84.612 84.621-75.123 20.555-375.62 20.555-375.62 20.555s-300.486 0-375.609-19.776c-40.33-11.063-73.547-44.279-84.609-85.4-19.77-75.117-19.77-230.9-19.77-230.9s0-156.57 19.77-230.899c11.074-41.122 43.488-73.545 84.615-84.617 75.908-20.561 375.616-20.561 375.616-20.561s300.484 0 375.607 19.776c41.126 11.068 73.549 43.486 84.621 84.608 19.763 75.123 19.763 230.899 19.763 230.899s0.794 156.576-19.772 231.693zM415.817 313.131v287.836l249.877-143.917-249.877-143.919z" />
<glyph unicode="&#xe924;" glyph-name="chat-1" d="M960 725.333h-106.667v-42.667h106.667c11.78 0 21.333-9.551 21.333-21.333v-512c0-11.782-9.553-21.333-21.333-21.333h-298.667c-5.658-0.002-11.083-2.251-15.083-6.251l-48.917-48.917v33.833c0 11.782-9.553 21.335-21.333 21.335h-298.667c-11.782 0-21.333 9.551-21.333 21.333v64h-42.667v-64c0-35.345 28.655-64 64-64h277.333v-64c0-11.782 9.553-21.333 21.335-21.333 5.658 0.002 11.081 2.249 15.081 6.249l79.083 79.083h289.835c35.345 0 64 28.655 64 64v512c0 35.347-28.655 64.002-64 64.002zM746.667 896h-682.667c-35.346 0-64-28.654-64-64v-512c0-35.345 28.654-64 64-64h298.667v-64c0-11.782 9.551-21.333 21.333-21.333 5.658 0.002 11.083 2.249 15.083 6.249l79.083 79.085h268.503c35.345 0 64 28.655 64 64v512c-0.002 35.346-28.657 64-64.002 64zM768 320c0-11.782-9.553-21.333-21.333-21.333h-277.333c-5.658-0.002-11.081-2.251-15.081-6.251l-48.919-48.917v33.833c0 11.782-9.551 21.335-21.333 21.335h-320c-11.782 0-21.334 9.551-21.334 21.333v512c0 11.782 9.552 21.334 21.334 21.334h682.667c11.78 0 21.333-9.552 21.333-21.334v-512zM341.333 725.333h-234.667v-42.667h234.667v42.667zM704 597.333h-597.333v-42.667h597.333v42.667zM704 469.333h-597.333v-42.667h597.333v42.667zM704 725.333h-42.667v-42.667h42.667v42.667zM618.667 725.333h-42.667v-42.667h42.667v42.667z" />
<glyph unicode="&#xe925;" glyph-name="refresh-1" d="M944.128 416.007c-4.365 5.107-9.779 9.213-15.878 12.038s-12.73 4.302-19.45 4.33h-1.856c-11.61-0.143-22.784-4.445-31.494-12.126-8.704-7.68-14.368-18.228-15.962-29.73-10.266-66.962-39.942-129.444-85.35-179.716s-104.563-86.131-170.138-103.13c-70.067-18.707-144.194-15.386-212.304 9.523-68.11 24.902-126.897 70.182-168.368 129.677-1.67 2.4-2.65 5.21-2.833 8.128s0.436 5.83 1.792 8.422c1.356 2.592 3.395 4.762 5.898 6.272 2.502 1.517 5.372 2.317 8.296 2.31h83.52c8.487 0 16.627 3.373 22.627 9.376 6.001 5.997 9.373 14.138 9.373 22.624s-3.372 16.627-9.373 22.628c-6.001 6.001-14.14 9.373-22.627 9.373h-256v-256.001c0-8.486 3.372-16.627 9.373-22.624 6.001-6.003 14.14-9.376 22.627-9.376s16.627 3.373 22.627 9.376c6.001 5.997 9.373 14.138 9.373 22.624v85.44c0.004 3.341 1.053 6.598 3.002 9.312s4.696 4.749 7.86 5.824c3.164 1.069 6.584 1.126 9.78 0.154 3.197-0.966 6.010-2.912 8.045-5.562 53.384-69.542 126-121.894 208.85-150.566s172.292-32.41 257.243-10.739c84.95 21.664 161.68 67.782 220.675 132.634 58.995 64.858 97.664 145.594 111.213 232.209 1.037 6.609 0.634 13.364-1.19 19.802-1.818 6.438-5.011 12.405-9.35 17.494zM704.038 560.005h256v256c0 8.487-3.373 16.626-9.376 22.627-5.997 6.001-14.138 9.373-22.624 9.373s-16.627-3.372-22.63-9.373c-5.997-6.001-9.37-14.14-9.37-22.627v-85.44c-0.006-3.341-1.056-6.596-3.002-9.31-1.952-2.714-4.698-4.75-7.859-5.823-3.168-1.073-6.586-1.128-9.786-0.159-3.194 0.969-6.010 2.915-8.045 5.564-53.261 69.398-125.683 121.681-208.32 150.399-82.633 28.718-171.868 32.613-256.692 11.205s-161.523-67.182-220.634-131.674c-59.11-64.492-98.045-144.879-112.001-231.242-1.072-6.862-0.645-13.875 1.251-20.556s5.217-12.873 9.734-18.148c4.517-5.276 10.123-9.51 16.433-12.413s13.173-4.404 20.118-4.402c11.546 0.117 22.671 4.353 31.372 11.944s14.404 18.040 16.084 29.464c11.398 69.078 43.143 133.186 91.174 184.124s110.166 86.39 178.456 101.823c68.29 15.432 139.631 10.143 204.899-15.192 65.265-25.334 121.496-69.562 161.489-127.027 1.67-2.401 2.65-5.213 2.835-8.131 0.179-2.919-0.442-5.832-1.792-8.422-1.357-2.591-3.398-4.761-5.901-6.274s-5.37-2.312-8.294-2.308h-83.52c-8.486 0-16.627-3.372-22.63-9.373-5.997-6.001-9.37-14.14-9.37-22.627s3.373-16.627 9.37-22.628c6.003-6.001 14.144-9.372 22.63-9.372z" />
<glyph unicode="&#xe926;" glyph-name="hour1" horiz-adv-x="1184" d="M868.454 473.923c6.483-6.48 0-19.443-6.48-25.923h-6.48c-6.483 0-12.963 6.48-12.963 6.48-51.846 90.736-155.542 149.066-259.242 149.066-12.96 0-19.44 6.48-19.44 19.443 0 12.96 6.48 19.442 19.44 19.442 116.659 0 226.838-64.811 285.165-168.507zM1153.619 298.938c0-12.963-6.48-19.443-19.443-19.443h-1114.733c-12.962 0-19.443 6.48-19.443 19.443 0 12.96 6.481 19.443 19.443 19.443h110.177c6.481 239.795 207.391 434.227 453.669 434.227 239.798 0 440.71-194.432 453.674-434.227h110.176c0 0 6.48-6.483 6.48-19.443zM991.594 318.381c-6.48 220.352-194.429 395.341-414.784 395.341s-401.822-174.989-414.784-395.341h829.568zM563.85-5.67l-97.216 97.216c-6.483 6.48-6.483 12.96-6.483 19.443 0 6.48 6.483 12.96 19.443 12.96h45.37v38.886h-285.166c-12.962 0-19.443 6.48-19.443 19.443s6.481 19.443 19.443 19.443h447.191c12.96 0 19.44-6.48 19.44-19.443s-6.48-19.443-19.44-19.443h-58.33v-38.886h45.366c6.48 0 12.963-6.48 19.443-12.96 0-6.483 0-12.963-6.48-19.443l-97.216-97.216c-6.483 0-6.483 0-12.963 0s-6.48 0-12.96 0zM524.963 91.546l51.846-51.85 51.85 51.85h-19.443c-12.963 0-19.443 6.48-19.443 19.443v58.326h-32.406v-58.326c0-12.963-6.48-19.443-19.443-19.443h-12.96zM259.241 85.062h-38.886c-12.962 0-19.443-6.48-19.443-19.443 0-12.96 6.481-19.443 19.443-19.443h38.886c12.962 0 19.443 6.483 19.443 19.443 0 12.963-12.962 19.443-19.443 19.443zM427.747 85.062h-110.178c-12.962 0-19.443-6.48-19.443-19.443 0-12.96 6.481-19.443 19.443-19.443h103.698c12.96 0 19.443 6.483 19.443 19.443 0 12.963-6.483 19.443-12.963 19.443zM933.267 85.062h-226.838c-12.96 0-19.44-6.48-19.44-19.443 0-12.96 6.48-19.443 19.44-19.443h226.838c12.96 0 19.443 6.483 19.443 19.443 0 12.963-6.483 19.443-19.443 19.443zM797.165-31.594h-304.608c-12.963 0-19.443-6.483-19.443-19.443 0-12.963 6.48-19.443 19.443-19.443h298.128c12.96 0 19.443 6.48 19.443 19.443 0 12.96-6.483 19.443-12.963 19.443zM421.267-31.594h-64.813c-12.96 0-19.443-6.483-19.443-19.443 0-12.963 6.483-19.443 19.443-19.443h58.33c12.963 0 19.443 6.48 19.443 19.443 0 12.96-6.48 19.443-12.96 19.443zM1069.366 201.722h-168.506c-12.963 0-19.443-6.48-19.443-19.443s6.48-19.443 19.443-19.443h168.506c12.963 0 19.443 6.48 19.443 19.443s-12.96 19.443-19.443 19.443zM829.571 162.835c12.96 0 19.44 6.48 19.44 19.443s-6.48 19.443-19.44 19.443h-64.813c-12.96 0-19.443-6.48-19.443-19.443s6.483-19.443 19.443-19.443h64.813zM168.506 201.722h-84.253c-12.962 0-19.443-6.48-19.443-19.443s6.481-19.443 19.443-19.443h77.772c12.962 0 19.443 6.48 19.443 19.443s-6.481 19.443-12.962 19.443zM576.81 817.418c12.963 0 19.443 6.481 19.443 19.443v103.696c0 12.962-6.48 19.443-19.443 19.443-12.96 0-19.443-6.481-19.443-19.443v-103.696c0-12.962 6.483-19.443 19.443-19.443zM291.645 752.608c6.481-6.481 6.481-6.481 12.962-6.481h6.481c19.443 6.481 19.443 19.443 12.963 25.924l-51.849 90.734c-6.481 12.962-12.962 12.962-25.924 6.481-6.481 0-12.962-12.962-6.481-19.443l51.848-97.215zM12.962 603.546l90.734-51.85h6.481c6.481 0 12.962 6.48 12.962 6.48 12.962 12.963 6.481 19.443 0 25.926l-90.734 51.846c-6.481 6.482-19.443 0-25.924-6.48s0-19.443 6.481-25.923zM1036.963 551.696h6.48l90.733 51.85c6.483 6.48 12.963 19.443 6.483 25.923-6.483 6.48-19.443 12.962-25.926 6.48l-90.733-51.846c-6.48-6.483-12.963-19.443-6.48-25.926 12.96-6.48 12.96-6.48 19.443-6.48zM836.051 746.127h6.48c6.48 0 12.963 6.481 12.963 6.481l51.846 90.734c6.483 6.481 0 19.443-6.48 25.924s-19.443 0-25.923-6.481l-51.85-90.734c0-6.481 0-19.443 12.963-25.924z" />
<glyph unicode="&#xe927;" glyph-name="hour2" horiz-adv-x="1120" d="M592.211 614.554c12.339-24.675 37.011-37.011 61.686-37.011 6.17 0 18.506 0 24.675 6.17 18.506 6.166 30.845 18.506 37.011 37.011 6.17 18.506 6.17 30.843 0 49.349-12.336 30.843-49.347 49.349-86.362 30.843-37.011-18.506-49.347-55.518-37.011-86.362zM641.562 663.904c12.336 6.169 30.842 0 37.011-12.337s0-30.843-12.336-37.013c-12.339-6.17-30.845 0-37.014 12.339-12.336 12.336-6.166 30.842 12.339 37.011zM1005.514 225.926v6.17c0 18.506 0 30.845-6.17 49.35 43.181 18.506 74.026 43.181 104.867 74.022 6.17 6.17 12.339 12.339 6.17 18.506 0 6.17-12.339 12.339-18.506 12.339-55.52 0-111.037 12.336-160.387 37.011 0 0 0 0-6.166 0-24.675 12.339-49.35 30.845-67.856 49.35-30.845 30.842-49.35 61.686-67.856 98.698-30.845 74.025-37.011 154.218-12.339 222.073 6.17 24.675 18.509 49.349 30.845 67.855s24.675 37.012 43.181 55.518c12.336 18.506 12.336 24.675 12.336 30.843s-12.336 12.337-18.506 12.337c-43.181 0-92.528-12.337-135.709-30.843-166.557-74.024-252.918-265.253-191.229-437.976 0 0 0 0-6.17 0-117.206 0-222.073-74.026-259.085-185.059-18.506 6.166-43.18 12.336-61.687 12.336-104.868 0-185.060-86.362-185.060-185.059 0-98.701 86.361-185.062 185.060-185.062h777.252c80.195 0 148.051 67.856 148.051 148.048 0 55.52-49.35 111.037-111.037 129.542zM987.008 312.288c-12.339 30.845-37.014 55.52-61.686 74.026 0 0 0 0 6.166 6.17 37.014-18.509 80.192-30.845 123.373-37.014-24.672-18.506-43.181-30.842-67.853-43.181zM869.802 404.819c-6.17 0-12.336 6.17-12.336 12.336 0 6.17 0 12.339 0 18.509 6.166-12.339 24.675-18.509 37.011-30.845-6.17 0-12.336 0-12.336 0-6.17 0-6.17 0-12.339 0zM752.598 824.289l-55.52-24.675h-6.166c0 0-6.17 0-6.17 6.169s0 12.338 6.17 12.338l67.853 30.843c0-12.337-6.166-18.506-6.166-24.675zM727.923 898.313c24.675 12.337 49.347 18.506 80.192 24.675-6.17-6.169-12.336-18.506-18.506-24.675l-111.037-49.349c-24.675-12.337-30.842-37.012-24.675-55.518 6.17-12.337 12.339-18.506 24.675-24.675 6.17 0 12.339-6.169 18.506-6.169 6.17 0 12.339 0 18.506 6.169l24.675 12.337c-12.336-67.855-6.17-148.049 24.675-215.902 12.336-37.014 37.011-74.026 61.686-98.701-6.17-18.506-12.336-37.011-6.17-55.517-30.842 0-61.686-12.339-92.528-30.845-18.506 24.675-49.35 49.35-74.026 67.856 24.675 12.336 30.845 37.011 24.675 61.686-12.336 18.506-37.011 30.845-61.686 18.506l-67.856-30.842c-55.517 160.385 24.675 333.108 178.893 400.963zM641.562 478.845l-30.845-6.17c-6.166 0-12.336 6.17-24.675 6.17l43.181 18.506c6.17 0 12.339 0 12.339-6.17 6.17 0 0-6.17 0-12.336zM968.499-26.989h-783.42c-86.361 0-154.217 67.856-154.217 154.218s67.856 154.218 154.217 154.218c18.506 0 37.012-6.17 55.518-12.339-12.337-67.853 6.169-117.203 6.169-117.203 0-6.17 12.337-12.339 18.506-12.339h6.169c6.169 6.17 12.337 12.339 12.337 24.675 0 0-18.506 49.35-6.169 117.206 24.675 104.867 123.373 178.89 234.41 178.89 80.192 0 154.218-37.011 197.398-104.867 0-6.166 6.166-6.166 12.336-6.166s12.336 0 12.336 6.166c24.675 18.506 55.52 30.845 92.531 30.845 12.339 0 24.675 0 30.845-6.17 6.166 0 6.166 0 12.336 0 55.52-18.506 98.698-74.022 98.698-135.709 0-6.17 0-12.339 0-18.509 0-12.336 6.17-18.506 12.339-18.506 55.517-6.166 92.531-55.517 92.531-111.037 6.166-74.022-43.181-123.373-104.87-123.373zM252.934 768.771l-12.337-61.687c0-6.169 0-12.338 6.169-18.506 0 0 6.169-6.169 12.337-6.169h6.169l61.688 30.844 61.686-30.844c6.166-6.169 12.336 0 18.506 0 6.17 6.169 6.17 12.337 6.17 18.506l-12.339 67.856 49.35 49.349c0 6.169 6.17 12.337 0 18.506 0 6.169-6.17 12.337-12.339 12.337l-67.853 6.169-30.845 61.687c0 6.169-6.17 12.337-18.506 12.337 0 0-6.169-6.169-12.338-12.337l-30.843-61.687-61.687-6.169c-6.169 0-12.338-6.169-12.338-12.337s0-12.337 6.169-18.506l43.18-49.349zM296.115 824.289c6.169 0 12.337 6.169 12.337 6.169l18.508 37.012 18.506-37.012c0-6.169 6.166-6.169 12.336-12.337l43.181-6.169-30.842-24.675c-6.17 0-6.17-6.169-6.17-12.337l6.17-43.181-37.014 18.506c-6.166 0-12.336 0-18.505 0l-30.843-18.506 6.169 43.181c0 6.169 0 12.337-6.169 18.506l-30.844 24.675 43.181 6.169zM49.368 454.17l-12.338-49.35c0-6.17 0-12.336 6.169-18.506 6.169 0 18.506 0 18.506 0l43.181 18.506 43.181-18.506h6.169c6.169 0 6.169 0 12.337 6.17 6.169 0 6.169 6.166 6.169 12.336l-6.169 49.35 30.843 30.842c6.169 6.17 6.169 12.339 6.169 18.506 0 6.17-6.169 12.339-12.337 12.339l-49.349 6.17-18.506 37.011c0 6.17-6.169 12.336-18.506 12.336-6.169 0-12.338-6.166-18.506-12.336l-18.506-37.011-43.181-6.17c-6.169 0-12.337-6.17-12.337-12.339 0-6.166 0-12.336 6.169-18.506l30.843-30.842zM86.38 485.011c6.169 0 12.338 6.17 12.338 12.339l6.169 18.506 6.169-18.506c0-6.17 6.169-6.17 12.337-12.339h18.506l-12.337-12.336c0-6.17 0-12.339 0-18.506l6.169-18.506-24.675 6.166c-6.169 0-12.337 0-18.506 0l-12.337-6.166 6.169 18.506c0 6.166 0 12.336-6.169 18.506l-18.506 12.336h24.675z" />
<glyph unicode="&#xe928;" glyph-name="hour3" horiz-adv-x="1184" d="M1163.36 584.333c0 90.886-30.294 169.655-84.829 230.247 0 0 0 0-6.058 6.059 0 0 0 0-6.061 6.059-12.118 12.118-18.176 18.178-30.294 30.296l-18.179 18.178c0 0-6.058 0-6.058 6.059-54.531 42.414-127.242 60.592-199.952 60.592-187.834 0-345.373-151.479-351.434-339.314v-6.058c0-12.118 0-24.237 0-36.355-84.829-36.355-151.478-96.947-187.833-181.776-18.178 0-30.296 6.058-48.473 6.058-121.184 0-224.189-96.947-224.189-224.189s96.947-224.189 224.189-224.189h624.095c96.947 0 169.654 78.768 169.654 169.658 0 60.592-36.352 115.123-84.826 145.421 139.36 54.531 230.246 187.834 230.246 333.254zM1096.71 457.088h-54.534c-6.058 0-12.118 6.061-12.118 12.118 0 6.061 6.061 12.118 12.118 12.118h60.592c0-12.118 0-18.176-6.058-24.237zM999.763 838.817c6.061-6.059 12.118-12.118 18.176-12.118h-218.128c-6.061 0-12.118 6.059-12.118 12.118s6.058 12.118 12.118 12.118l199.952-12.118zM496.851 578.272h72.71c6.061 0 12.118-6.058 12.118-12.118 0-6.058-6.058-12.118-12.118-12.118-12.118 0-18.176 0-30.294 0s-24.237 0-42.416 0c0 6.061 0 12.118 0 24.237zM987.645 111.715c0-72.71-60.592-139.36-139.36-139.36h-624.095c-103.006 0-187.835 84.829-187.835 187.834 0 103.008 84.828 187.834 187.835 187.834 18.177 0 36.355 0 54.532-6.058 6.059 0 12.118 0 12.118 0 6.059 0 6.059 6.058 6.059 12.118 30.297 103.005 127.241 175.715 236.307 175.715 133.302 0 248.426-109.066 248.426-248.426 0-6.061 0-12.118 0-18.176 0 0-6.058-60.592-18.176-103.008-6.061-6.058 0-18.176 6.058-24.237h6.061c6.058 0 12.118 6.061 18.176 12.118 18.179 36.355 18.179 78.771 24.237 103.008 12.118 0 24.237 6.058 30.298 6.058 78.768-12.118 139.36-72.71 139.36-145.421zM787.693 408.614c-6.061 18.179-18.179 30.298-30.298 48.474 6.061 6.061 12.118 6.061 18.179 6.061 18.176 0 30.294-12.118 30.294-30.298 0-12.118-6.058-24.237-18.176-24.237zM884.64 275.312c-12.118 0-24.237 6.061-36.355 6.061s-18.179 0-30.298 0c0 36.355-6.058 66.65-18.176 96.947 24.237 12.118 42.413 30.294 42.413 60.592 0 36.355-30.294 60.592-60.592 60.592-18.176 0-30.294-6.061-42.413-18.179-36.355 30.298-78.768 60.592-121.184 72.71 0 6.061 6.061 12.118 6.061 18.179 0 24.237-18.179 42.413-42.416 42.413h-84.829c12.118 157.539 151.482 284.781 315.078 284.781 42.413 0 84.829-12.118 127.242-24.237h-133.302c-24.237 0-42.413-18.177-42.413-42.414s18.176-42.414 42.413-42.414h248.426c48.474-54.533 72.71-127.243 72.71-199.953 0-24.237-6.058-54.531-12.118-78.768h-72.71c-24.237 0-42.413-18.179-42.413-42.416s18.176-42.413 42.413-42.413h36.355c-36.355-78.771-109.062-127.245-193.891-151.482zM927.053 747.929c-54.531 0-96.947-42.414-96.947-96.947 0-54.531 42.416-96.947 96.947-96.947 54.534 0 96.947 42.416 96.947 96.947 0 48.474-42.413 96.947-96.947 96.947zM927.053 584.333c-36.355 0-66.65 30.294-66.65 66.649s30.294 66.651 66.65 66.651c36.355 0 66.653-30.296 66.653-66.651s-30.298-66.649-66.653-66.649zM642.272 753.988c-36.355 0-60.592-30.296-60.592-60.592 0-36.355 30.298-60.593 60.592-60.593 36.355 0 60.592 30.297 60.592 60.593 0 36.355-24.237 60.592-60.592 60.592zM642.272 663.1c-18.176 0-30.294 12.118-30.294 30.296s12.118 30.296 30.294 30.296c18.179 0 30.298-12.118 30.298-30.296s-12.118-30.296-30.298-30.296zM96.947 560.096l-6.059-66.653c0-6.058 0-12.118 6.059-18.176 6.059 0 12.118-6.061 18.177 0l60.592 30.294 60.592-30.294h6.059c0 0 0 0 6.059 0 6.059 6.058 6.059 12.118 6.059 18.176l-12.118 66.653 48.474 48.474c6.059 6.058 6.059 12.115 6.059 18.176 0 6.058-6.059 12.118-12.118 12.118l-66.651 6.059-30.296 60.592c0 6.059-6.059 12.118-18.178 12.118-6.059 0-12.118-6.059-18.177-12.118l-30.296-60.592-60.592-12.12c-6.059 0-12.118-6.058-12.118-12.115 0-6.061 0-12.118 6.059-18.179l42.414-42.413zM139.361 608.57c6.059 0 12.118 6.058 12.118 12.118l18.177 36.353 18.178-36.353c0-6.061 6.059-6.061 12.118-12.118l42.414-6.061-30.296-24.237c0-6.058-6.059-12.118-6.059-18.176l6.059-42.416-30.296 24.237h-12.118l-42.414-18.176 6.059 42.413c0 6.061 0 12.118-6.059 18.179l-24.237 18.176 36.355 6.061zM290.84 832.757l-6.059-54.532c0-6.059 0-12.118 6.059-18.178 0 0 6.059-6.059 12.118-6.059h6.059l48.474 24.237 48.474-24.237c6.058-6.059 12.118 0 18.176 0 0 12.118 6.061 18.178 6.061 24.237l-12.118 54.532 36.355 36.355c6.058 6.059 6.058 12.118 6.058 18.178s-6.058 12.118-12.118 12.118l-54.531 6.059-24.237 42.414c0 6.059-6.061 12.118-12.118 12.118-6.061 0-12.118-6.059-18.179-12.118l-24.235-42.414-48.473-12.118c-6.059 0-12.118-6.059-12.118-12.118s0-12.118 6.059-18.178l30.296-30.296zM333.254 869.112c6.058 0 12.118 6.059 12.118 12.118l12.118 24.237 12.118-24.237c0-6.059 6.058-6.059 12.118-12.118l24.237-6.059-18.179-12.118c-6.058-6.059-6.058-12.118-6.058-18.178l6.058-24.237-24.237 12.118h-12.118l-24.234-12.118 6.058 24.237c0 6.059 0 12.118-6.058 18.178l-24.238 18.177h30.296z" />
<glyph unicode="&#xe929;" d="M1024 448c0-282.77-229.23-512-512-512s-512 229.23-512 512c0 282.77 229.23 512 512 512s512-229.23 512-512z" />
<glyph unicode="&#xe92a;" d="M334.583 509.918l201.247-201.247-88.045-88.045-201.247 201.247 88.045 88.045z" />
<glyph unicode="&#xe92b;" d="M359.833 308.689l333.314 333.314 88.045-88.045-333.314-333.314-88.045 88.045z" />
<glyph unicode="&#xe92c;" glyph-name="book-course" d="M761.854 497.523c21.233 0 38.446 17.057 38.446 38.098 0 21.038-17.213 38.093-38.446 38.093-21.236 0-38.449-17.054-38.449-38.093 0-21.041 17.213-38.098 38.449-38.098zM850.286 859.429h-49.983v38.095c0 21.040-17.213 38.095-38.446 38.095-21.236 0-38.449-17.055-38.449-38.095v-38.095h-174.938v38.095c0 21.040-17.213 38.095-38.449 38.095-21.233 0-38.446-17.055-38.446-38.095v-38.095h-173.017v38.095c0 21.040-17.213 38.095-38.449 38.095-21.234 0-38.447-17.055-38.447-38.095v-38.095h-48.060c-84.801 0-153.792-68.358-153.792-152.381v-594.286c0-84.024 68.991-152.381 153.792-152.381h294.128c21.233 0 38.446 17.054 38.446 38.095s-17.213 38.095-38.446 38.095h-294.128c-42.4 0-76.896 34.18-76.896 76.19v594.286c0 42.011 34.495 76.19 76.896 76.19h48.060v-38.095c0-21.040 17.213-38.095 38.447-38.095 21.236 0 38.449 17.055 38.449 38.095v38.095h173.017v-38.095c0-21.040 17.213-38.095 38.446-38.095 21.236 0 38.449 17.055 38.449 38.095v38.095h174.938v-38.095c0-21.040 17.213-38.095 38.449-38.095 21.233 0 38.446 17.055 38.446 38.095v38.095h49.983c42.401 0 76.895-34.179 76.895-76.19v-217.142c0-21.041 17.213-38.098 38.449-38.098s38.449 17.057 38.449 38.098v217.142c0 84.023-68.991 152.381-153.793 152.381zM771.467 421.332c-128.261 0-232.609-103.39-232.609-230.476s104.348-230.476 232.609-230.476c128.263 0 232.611 103.39 232.611 230.476s-104.348 230.476-232.611 230.476zM771.467 36.571c-85.86 0-155.714 69.21-155.714 154.285s69.854 154.285 155.714 154.285c85.86 0 155.714-69.21 155.714-154.285s-69.854-154.285-155.714-154.285zM827.221 228.952h-17.301v39.999c0 21.041-17.213 38.098-38.449 38.098s-38.449-17.057-38.449-38.098v-78.095c0-21.038 17.213-38.095 38.449-38.095h55.749c21.236 0 38.449 17.057 38.449 38.095 0 21.041-17.213 38.095-38.449 38.095zM594.615 497.523c21.233 0 38.449 17.057 38.449 38.098 0 21.038-17.215 38.093-38.449 38.093s-38.449-17.054-38.449-38.093c0-21.041 17.215-38.098 38.449-38.098zM427.352 331.81c21.236 0 38.449 17.054 38.449 38.095 0 21.038-17.213 38.095-38.449 38.095-21.233 0-38.446-17.057-38.446-38.095 0-21.041 17.213-38.095 38.446-38.095zM260.116 497.523c21.233 0 38.446 17.057 38.446 38.098 0 21.038-17.213 38.093-38.446 38.093-21.235 0-38.449-17.054-38.449-38.093 0-21.041 17.214-38.098 38.449-38.098zM260.116 331.81c21.233 0 38.446 17.054 38.446 38.095 0 21.038-17.213 38.095-38.446 38.095-21.235 0-38.449-17.057-38.449-38.095 0-21.041 17.214-38.095 38.449-38.095zM260.116 166.095c21.233 0 38.446 17.057 38.446 38.095s-17.213 38.095-38.446 38.095c-21.235 0-38.449-17.057-38.449-38.095s17.214-38.095 38.449-38.095zM427.352 166.095c21.236 0 38.449 17.057 38.449 38.095s-17.213 38.095-38.449 38.095c-21.233 0-38.446-17.057-38.446-38.095s17.213-38.095 38.446-38.095zM427.352 497.523c21.236 0 38.449 17.057 38.449 38.098 0 21.038-17.213 38.093-38.449 38.093-21.233 0-38.446-17.054-38.446-38.093 0-21.041 17.213-38.098 38.446-38.098z" />
<glyph unicode="&#xe92d;" glyph-name="logout" d="M884.362 960h-744.726c-76.8 0-139.636-62.836-139.636-139.636v-232.728h93.091v232.728c0 25.6 20.945 46.545 46.545 46.545h744.726c25.6 0 46.546-20.945 46.546-46.545v-744.726c0-25.6-20.946-46.546-46.546-46.546h-744.726c-25.6 0-46.545 20.946-46.545 46.546v229.002h-93.091v-229.002c0-76.8 62.836-139.638 139.636-139.638h744.726c76.8 0 139.638 62.838 139.638 139.638v744.726c0 76.8-62.838 139.636-139.638 139.636zM0 401.444h449.164l-109.848-109.844 66.095-65.633 221.093 221.092-221.093 221.092-66.095-66.094 107.52-107.52h-446.836v-93.092z" />
<glyph unicode="&#xe92e;" glyph-name="help" d="M756.869 69.565c0 122.88-99.727 222.607-222.607 222.607h-311.653c-122.88 0-222.609-99.727-222.609-222.607v-133.565h756.869v133.565zM667.827 25.047h-578.784v44.518c0 73.462 60.104 133.565 133.565 133.565h311.653c73.462 0 133.565-60.104 133.565-133.565v-44.518zM178.087 537.052c0-110.413 89.934-200.346 200.348-200.346s200.35 89.933 200.35 200.346c0 110.414-89.936 200.348-200.35 200.348s-200.348-89.934-200.348-200.348zM489.74 537.052c0-61.44-49.864-111.304-111.305-111.304-61.439 0-111.304 49.864-111.304 111.304s49.865 111.304 111.304 111.304c61.441 0 111.305-49.864 111.305-111.304zM845.916 514.775h-89.042v-89.042h89.042v89.042zM845.911 603.826c0 24.487 20.035 44.521 44.524 44.521 73.462 0 133.565 60.105 133.565 133.565v44.521c0 73.461-60.104 133.565-133.565 133.565h-89.042c-73.462 0-133.565-60.104-133.565-133.565h89.042c0 24.487 20.035 44.522 44.524 44.522h89.042c24.484 0 44.518-20.035 44.518-44.522v-44.521c0-24.487-20.035-44.522-44.518-44.522-73.462 0-133.565-60.104-133.565-133.565v-44.522h89.042v44.522z" />
<glyph unicode="&#xe92f;" glyph-name="setting" d="M512 191.575c141.225 0 256.425 114.77 256.425 256.425 0 141.654-114.77 256-256.425 256-141.654 0-256-114.774-256-256 0-141.225 114.774-256.425 256-256.425zM512 276.905c-30.72 0-58.88 8.535-84.054 23.040l103.678 105.39h145.070c-18.775-73.815-84.91-128.43-164.695-128.43zM677.12 490.666h-122.455v122.027c60.16-15.36 106.67-62.294 122.455-122.027zM469.334 612.694v-149.334l-102.4-104.105c-16.214 25.6-25.6 55.89-25.6 88.745 0 79.36 54.613 145.494 128 164.694zM125.014 268.375l-58.88-98.56 167.68-167.68 98.56 58.88c10.666-5.12 22.186-9.815 33.28-13.655l27.733-111.36h237.229l27.73 111.36c11.52 4.265 22.615 8.535 33.28 13.655l98.56-58.88 167.68 167.68-58.88 98.56c5.12 11.090 9.815 22.185 13.655 33.28l111.36 27.73v237.229l-111.36 27.733c-4.265 11.52-8.535 22.614-13.655 33.28l58.88 98.56-167.68 167.68-98.56-58.88c-10.665 5.12-22.185 9.814-33.28 13.654l-27.73 111.36h-237.229l-27.733-111.36c-11.52-3.84-22.614-8.534-33.28-13.654l-98.56 58.88-167.68-167.68 58.88-98.56c-5.12-10.666-9.387-21.76-13.654-33.28l-111.36-27.733v-237.229l111.36-27.73c4.266-11.52 8.534-22.615 13.654-33.28zM85.334 500.054l93.013 23.040 6.827 23.040c6.826 22.186 15.36 43.52 26.026 63.146l11.52 21.334-49.066 82.346 73.386 73.386 81.92-49.066 21.334 11.52c20.053 10.666 41.386 19.2 63.146 26.026l23.040 6.827 23.466 93.013h104.109l23.040-93.013 23.040-6.827c21.76-6.4 43.090-15.36 63.145-26.026l21.335-11.52 82.345 49.066 73.385-73.386-49.49-82.346 11.52-21.334c10.665-19.626 19.2-40.96 26.025-63.146l6.825-23.040 93.44-23.040v-104.109l-93.010-23.465-6.83-23.040c-6.4-21.76-15.36-43.095-26.025-63.145l-11.52-21.335 49.495-82.345-73.39-73.39-82.345 49.495-21.335-11.52c-19.625-10.665-40.96-19.2-63.145-26.025l-23.040-6.83-23.465-93.010h-104.109l-23.040 93.010-23.466 6.83c-21.76 6.4-43.094 15.36-62.72 26.025l-21.334 11.52-82.346-49.495-73.386 73.39 49.493 82.345-11.52 21.335c-10.666 20.050-19.626 40.96-26.026 62.72l-6.826 23.040-93.44 23.89v104.109z" />
<glyph unicode="&#xe930;" glyph-name="home" d="M61.676 360.504l56.428 56.428v-419.487h787.358v419.487l56.863-56.428 61.676 61.676-511.78 512.22-218.712-218.71v69.55h-87.484v-157.034l-206.025-206.026 61.676-61.676zM818.412 504.416v-419.486h-612.387v419.486l306.195 306.194 306.191-306.194z" />
<glyph unicode="&#xe931;" glyph-name="three-dots" d="M512.040 710.562c55.931 0 101.272 47.022 101.272 105.027s-45.341 105.026-101.272 105.026c-55.93 0-101.271-47.022-101.271-105.026s45.341-105.027 101.271-105.027zM512.040 342.986c55.931 0 101.272 47.022 101.272 105.026s-45.341 105.027-101.272 105.027c-55.93 0-101.271-47.022-101.271-105.027s45.341-105.026 101.271-105.026zM512.040-24.631c55.931 0 101.272 47.025 101.272 105.031 0 58.002-45.341 105.023-101.272 105.023s-101.271-47.021-101.271-105.023c0-58.006 45.341-105.031 101.271-105.031z" />
<glyph unicode="&#xe932;" glyph-name="add" d="M512 960c-282.334 0-512-229.666-512-512 0-282.336 229.666-512 512-512 282.336 0 512 229.709 512 512 0 282.294-229.664 512-512 512zM512 15.315c-238.55 0-432.682 194.093-432.682 432.685 0 238.59 194.132 432.682 432.682 432.682 238.547 0 432.685-194.092 432.685-432.682 0-238.592-194.093-432.685-432.685-432.685zM710.317 491.235h-158.638v158.636c0 21.892-17.728 39.66-39.66 39.66s-39.66-17.768-39.66-39.66v-158.636h-158.636c-21.932 0-39.66-17.768-39.66-39.66s17.728-39.66 39.66-39.66h158.636v-158.636c0-21.894 17.728-39.661 39.66-39.661s39.66 17.766 39.66 39.661v158.636h158.638c21.933 0 39.661 17.768 39.661 39.66s-17.728 39.66-39.661 39.66z" />
<glyph unicode="&#xe933;" glyph-name="clock" d="M680.356 401.562l-131.791 99.257v202.187c0 20.33-16.364 36.762-36.61 36.762s-36.609-16.433-36.609-36.762v-220.57c0-11.58 5.419-22.499 14.643-29.41l146.434-110.286c6.589-4.962 14.278-7.352 21.929-7.352 11.166 0 22.148 5.037 29.324 14.742 12.157 16.215 8.862 39.263-7.32 51.432zM512 960c-260.616 0-472.615-212.886-472.615-474.592s212-474.592 472.615-474.592c260.616 0 472.615 212.886 472.615 474.592s-212 474.592-472.615 474.592zM512 84.338c-220.2 0-399.399 179.948-399.399 401.069s179.199 401.070 399.399 401.070c220.237 0 399.399-179.949 399.399-401.070s-179.199-401.069-399.399-401.069z" />
<glyph unicode="&#xe934;" glyph-name="bell" d="M900.403 145.092c-3.012 1.954-25.664 17.826-48.35 65.835-41.655 88.166-50.402 212.361-50.402 301.022 0 0.388-0.009 0.768-0.021 1.152-0.452 117.179-70.618 218.191-171.029 263.513v69.314c0 62.9-51.085 114.072-113.882 114.072h-9.438c-62.797 0-113.885-51.172-113.885-114.072v-69.31c-100.744-45.468-171.050-146.996-171.050-264.669 0-88.661-8.744-212.855-50.402-301.022-22.682-48.009-45.336-63.876-48.348-65.835-12.684-5.867-18.938-19.43-16.020-33.169 2.946-13.879 15.918-23.445 30.084-23.445h219.894c1.228-84.284 70.017-152.478 154.446-152.478s153.22 68.194 154.445 152.478h219.895c14.165 0 27.136 9.566 30.084 23.445 2.914 13.739-3.337 27.302-16.021 33.169v0zM453.397 845.928c0 29.762 24.175 53.974 53.884 53.974h9.438c29.713 0 53.884-24.212 53.884-53.974v-49.834c-18.935 3.914-38.537 5.974-58.611 5.974-20.066 0-39.663-2.058-58.59-5.968v49.828h-0.004zM512-3.904c-51.345 0-93.228 41.237-94.446 92.378h188.888c-1.216-51.14-43.098-92.378-94.443-92.378v0zM632.802 148.574c-0.009 0-426.772 0-426.772 0 5.19 8.090 10.472 17.25 15.722 27.597 40.208 79.287 60.596 192.26 60.596 335.778 0 126.835 103.018 230.021 229.643 230.021 126.622 0 229.641-103.186 229.641-230.119 0-0.371 0.004-0.738 0.021-1.105 0.111-142.946 20.497-255.514 60.595-334.575 5.248-10.351 10.534-19.507 15.723-27.597h-185.169z" />
<glyph unicode="&#xe935;" glyph-name="secure" d="M512 960c-190.031 0-344.615-153.112-344.615-341.333v-146.286h-49.231v-536.381h787.692v536.381h-49.231v146.286c0 188.221-154.585 341.333-344.615 341.333zM561.231 131.048h-98.462v146.285h98.462v-146.285zM265.846 472.381v146.286c0 134.583 110.277 243.809 246.154 243.809s246.154-109.226 246.154-243.809v-146.286h-492.308z" />
<glyph unicode="&#xe936;" glyph-name="card" d="M0 704v-512c0-51.2 41.891-93.091 93.091-93.091h837.818c51.2 0 93.091 41.891 93.091 93.091v512c0 51.2-41.891 93.091-93.091 93.091h-837.818c-51.2 0-93.091-41.891-93.091-93.091zM93.091 192v279.273h837.818v-279.273h-837.818zM930.909 610.909h-837.818v93.091h837.818v-93.091zM512 424.727h-372.364v-93.091h372.364v93.091zM884.364 424.727h-186.182v-93.091h186.182v93.091z" />
<glyph unicode="&#xe937;" glyph-name="user" d="M1024 38.4c0 197.632-160.768 358.4-358.4 358.4h-307.2c-197.632 0-358.4-160.768-358.4-358.4v-102.4h1024v102.4zM102.4 38.4c0 141.312 114.688 256 256 256h307.2c141.312 0 256-114.688 256-256h-819.2zM768 704c0 141.312-114.688 256-256 256s-256-114.688-256-256c0-141.312 114.688-256 256-256s256 114.688 256 256zM358.4 704c0 84.48 69.12 153.6 153.6 153.6s153.6-69.12 153.6-153.6c0-84.48-69.12-153.6-153.6-153.6s-153.6 69.12-153.6 153.6z" />
<glyph unicode="&#xe938;" glyph-name="fly" horiz-adv-x="1243" d="M1231.506 915.045c6.012 26.557-21.409 48.95-48.15 39.259l-1160.13-420.567c-13.962-5.063-23.198-17.772-23.227-31.963-0.029-14.194 9.153-26.937 23.097-32.050l325.902-119.53v-376.482c0-15.879 11.483-29.681 27.754-33.36 16.162-3.65 33.016 3.657 40.593 17.927l134.789 254.011 328.937-231.826c20.005-14.102 48.764-5.135 56.049 17.532 307.12 956.233 293.844 914.647 294.385 917.050zM945.13 794.549l-565.145-382.212-243.165 89.183 808.31 293.029zM421.206 356.034l492.619 333.155c-423.893-424.659-401.754-402.307-403.602-404.67-2.747-3.509 4.778 10.167-89.017-166.584v238.098zM882.988 64.505l-289.54 204.055 523.531 524.48-233.991-728.535z" />
<glyph unicode="&#xe939;" glyph-name="bell-2" horiz-adv-x="725" d="M358.4-63.983c56.32 0 102.4 46.080 102.4 102.4h-204.8c0-56.32 46.080-102.4 102.4-102.4zM693.743 162.304l-28.16 27.136v360.96c0 152.064-110.592 278.016-255.998 302.592v55.808c0 28.16-23.040 51.2-51.2 51.2s-51.2-23.040-51.2-51.2v-55.808c-144.896-24.576-256-150.528-256-302.592v-361.472l-27.136-26.624c-40.96-39.936-28.672-72.704 27.136-72.704h614.398c56.32 0 69.12 32.768 28.16 72.704z" />
<glyph unicode="&#xe93a;" glyph-name="repeat-students" horiz-adv-x="1216" d="M829.357 299.901c-5.645 28.208-5.645 59.238 2.819 93.091 14.106 45.136 47.955 78.986 90.269 98.733 36.675 16.925 70.525 19.747 101.555 14.106 8.464-2.822 16.925 5.642 16.925 14.102v383.648c0 31.030-25.389 56.419-56.419 56.419h-761.652c-31.030 0-56.419-25.388-56.419-56.419v-383.648c0-8.461 8.463-14.102 16.926-14.102 36.672 5.642 76.165 0 118.479-28.211 31.030-19.747 53.596-50.778 64.883-84.627 11.283-33.853 11.283-64.883 5.642-93.091-2.822-8.464 5.642-16.925 14.102-16.925h36.672c5.642 0 11.286 5.642 14.106 11.283 16.925 73.344 84.627 129.763 166.435 129.763 78.986 0 146.688-56.419 166.435-129.763 2.822-5.642 5.642-11.283 14.106-11.283h36.672c5.642 0 11.283 8.461 8.464 16.925zM739.085 613.024l-169.254-104.374c-28.211-16.925-62.061 2.822-62.061 36.672v208.75c0 33.851 36.672 53.598 62.061 36.672l169.254-104.374c25.389-16.926 25.389-56.417 0-73.345zM205.928 223.734c62.061 0 112.837 50.778 112.837 112.838s-50.777 112.838-112.837 112.838c-62.060 0-112.837-50.778-112.837-112.838s50.777-112.838 112.837-112.838zM882.954 339.395c0-62.061 50.778-112.838 112.838-112.838s112.835 50.778 112.835 112.838c0 62.061-50.774 112.835-112.835 112.835s-112.838-50.774-112.838-112.835zM1108.627 167.318h-225.674c-33.853 0-62.061-16.928-78.986-42.317-2.822-5.642-2.822-14.102 2.819-19.744 22.57-19.747 42.314-45.136 50.778-76.166 2.822-5.642 8.464-11.283 14.106-11.283h301.84c16.925 0 28.208 11.283 28.208 28.208v25.389c0 53.597-42.314 95.914-93.091 95.914zM318.766 167.318h-225.675c-50.777 0-93.091-42.317-93.091-93.091v-25.389c0-16.928 11.284-28.211 28.209-28.211h301.839c5.645 0 11.286 5.642 14.106 11.283 8.464 31.030 25.389 56.419 50.778 76.166 5.642 5.642 8.464 14.106 2.822 19.747-16.928 22.566-45.136 39.494-78.988 39.494zM600.867 139.107c62.061 0 112.835 50.774 112.835 112.835s-50.774 112.838-112.835 112.838c-62.061 0-112.838-50.778-112.838-112.838s50.778-112.835 112.838-112.835zM713.702 82.688h-225.674c-50.778 0-93.091-42.314-93.091-93.091v-25.389c0-16.925 11.283-28.208 28.208-28.208h355.44c16.925 0 28.208 11.283 28.208 28.208v25.389c0 50.778-42.314 93.091-93.091 93.091z" />
<glyph unicode="&#xe93b;" glyph-name="number-lessons" horiz-adv-x="1408" d="M1367.325 153.408l-68.835 25.206v233.155c-6.259 0-9.389-3.152-15.645-3.152h-109.51v-189.043h-938.668v598.645h469.333v78.769c0 15.754 3.13 31.508 9.386 47.262h-541.297c-34.418 0-62.578-28.357-62.578-63.015v-705.772l-68.836-25.206c-25.031-9.453-40.676-31.507-40.676-59.866v-94.522c0-34.659 28.16-63.014 62.578-63.014h1282.843c34.419 0 62.579 28.355 62.579 63.014v94.522c0 28.358-18.774 53.565-40.675 63.018zM782.221 30.528h-156.442c-25.034 0-46.934 22.054-46.934 47.261s21.901 47.261 46.934 47.261h156.442c25.034 0 46.934-22.054 46.934-47.261s-21.901-47.261-46.934-47.261zM463.075 503.142c65.706-31.507 131.414 18.906 131.414 81.92 0 50.413-40.675 91.372-90.739 91.372-62.576 0-112.64-66.166-81.35-132.332 9.386-18.906 25.030-31.507 40.675-40.96zM353.565 342.454v-22.058c0-12.602 9.386-22.054 21.901-22.054h262.829c12.515 0 21.901 9.453 21.901 22.054v22.058c0 40.96-31.29 75.616-68.835 75.616h-165.83c-40.675 0-71.965-34.656-71.965-75.616zM1282.842 960h-438.045c-34.419 0-62.579-28.357-62.579-63.015v-441.106c0-18.906 15.645-31.51 31.29-31.51 6.259 0 12.515 3.152 18.774 6.304l59.45 44.109c9.386 9.453 25.030 12.605 37.546 12.605h353.565c34.416 0 62.576 28.355 62.576 63.014v346.585c0 34.658-28.16 63.015-62.576 63.015zM1176.458 711.089l-128.285-78.769c-21.901-12.602-46.931 3.152-46.931 28.357v157.539c0 25.206 28.16 40.96 46.931 28.357l128.285-78.769c21.904-12.603 21.904-44.111 0-56.714z" />
<glyph unicode="&#xe93c;" glyph-name="trash" d="M848 832h-176v32c0 52.934-43.064 96-96 96h-128c-52.934 0-96-43.066-96-96v-32h-176c-44.112 0-80-35.888-80-80v-112c0-17.672 14.328-32 32-32h17.488l27.646-580.567c2.442-51.272 44.562-91.433 95.89-91.433h485.951c51.333 0 93.45 40.161 95.892 91.433l27.643 580.567h17.49c17.674 0 32 14.328 32 32v112c0 44.112-35.886 80-80 80zM416 864c0 17.644 14.356 32 32 32h128c17.644 0 32-14.356 32-32v-32h-192v32zM160 752c0 8.822 7.178 16 16 16h672c8.822 0 16-7.178 16-16v-80c-9.861 0-663.134 0-704 0v80zM786.939 30.479c-0.814-17.091-14.853-30.479-31.964-30.479h-485.951c-17.11 0-31.15 13.389-31.962 30.479l-27.502 577.521h604.878l-27.5-577.521zM512 64c17.674 0 32 14.326 32 32v416c0 17.672-14.326 32-32 32-17.672 0-32-14.328-32-32v-416c0-17.674 14.326-32 32-32zM672 64c17.674 0 32 14.326 32 32v416c0 17.672-14.326 32-32 32s-32-14.328-32-32v-416c0-17.674 14.326-32 32-32zM352 64c17.672 0 32 14.326 32 32v416c0 17.672-14.328 32-32 32s-32-14.328-32-32v-416c0-17.674 14.326-32 32-32z" />
<glyph unicode="&#xe93d;" glyph-name="cloud-computing" d="M946.227 615.77c3.19 17.104 4.808 34.464 4.828 51.864-0.195 161.596-131.348 292.437-292.946 292.242-123.013-0.148-232.798-77.222-274.724-192.871-75.068 29.882-160.149-6.746-190.033-81.815-2.587-6.498-4.704-13.171-6.335-19.971-119.864-17.926-202.5-129.628-184.573-249.495 16.077-107.5 108.429-187.028 217.124-186.988h182.872c20.2 0 36.575 16.379 36.575 36.577s-16.375 36.572-36.575 36.572h-182.872c-80.799 0-146.298 65.5-146.298 146.301 0 80.799 65.5 146.299 146.298 146.299 20.2 0 36.575 16.375 36.575 36.575 0.067 40.398 32.87 73.095 73.268 73.028 19.105-0.032 37.441-7.537 51.084-20.91 14.386-14.178 37.544-14.009 51.722 0.377 5.323 5.402 8.836 12.324 10.051 19.812 19.853 119.437 132.77 200.166 252.21 180.313 119.434-19.853 200.161-132.77 180.311-252.207-1.183-7.121-2.719-14.181-4.598-21.15-4.209-15.267 1.889-31.505 15.104-40.231 67.328-44.671 85.688-135.466 41.016-202.789-27.039-40.75-72.648-65.295-121.554-65.413h-109.722c-20.204 0-36.577-16.374-36.577-36.572 0-20.204 16.374-36.577 36.577-36.577h109.722c121.196 0.113 219.356 98.458 219.238 219.656-0.056 64.507-28.503 125.723-77.768 167.373zM756.603 181.463c-14.172 13.691-36.644 13.691-50.816 0l-120.515-120.438v533.474c0 20.2-16.374 36.575-36.572 36.575-20.204 0-36.577-16.375-36.577-36.575v-533.474l-120.44 120.443c-14.53 14.029-37.683 13.629-51.716-0.901-13.69-14.172-13.69-36.644 0-50.816l182.872-182.871c14.264-14.3 37.422-14.331 51.722-0.067 0.026 0.020 0.046 0.046 0.067 0.067l182.871 182.871c14.039 14.525 13.635 37.678-0.896 51.712z" />
<glyph unicode="&#xe93e;" d="M1024 564.348l-371.866 24.456-140.134 352.040-140.134-352.042-371.866-24.456 285.316-241.86-93.604-367.356 320.288 202.426 320.288-202.426-93.6 367.34 285.312 241.878zM512 228.538l-224.928-142.157 65.654 257.659-201.068 170.17 261.942 17.206 98.4 247.196 98.4-247.198 262.246-17.204-201.376-170.154 65.658-257.675-224.928 142.157z" />
<glyph unicode="&#xe93f;" d="M1024 564.673l-372 24.002-140.4 352.2-140.402-352.2-371.198-24.002 284.798-242.398-93.6-367.203 320.402 202.803 320.4-202.803-93.6 367.203 285.6 242.398z" />
<glyph unicode="&#xe940;" d="M738.426 322.275l93.6-367.203-320.401 202.803v783l140.401-352.2 372-24.002-285.6-242.398z" />
<glyph unicode="&#xe941;" glyph-name="rating" d="M1024 564.348l-371.866 24.456-140.134 352.040-140.134-352.042-371.866-24.456 285.316-241.86-93.604-367.356 320.288 202.426 320.288-202.426-93.6 367.34 285.312 241.878zM512 228.538l-224.928-142.157 65.654 257.659-201.068 170.17 261.942 17.206 98.4 247.196 98.4-247.198 262.246-17.204-201.376-170.154 65.658-257.675-224.928 142.157z" />
<glyph unicode="&#xe942;" glyph-name="feedback" d="M234.709 661.331h469.336c11.789 0 21.331 9.542 21.331 21.334s-9.542 21.334-21.331 21.334h-469.336c-11.792 0-21.334-9.542-21.334-21.334 0.003-11.795 9.544-21.334 21.334-21.334zM490.711 448h-256.002c-11.792 0-21.334-9.542-21.334-21.334s9.542-21.334 21.334-21.334h256.002c11.792 0 21.334 9.542 21.334 21.334s-9.542 21.334-21.334 21.334zM942.336 831.978c-1.235 0-2.438-0.31-3.667-0.368v0.368c0 47.062-38.291 85.334-85.338 85.334h-767.997c-47.042 0-85.334-38.272-85.334-85.334v-831.997c0-8.627 5.208-16.416 13.166-19.712 2.626-1.101 5.416-1.626 8.166-1.626 5.542 0 11 2.17 15.084 6.253l207.084 207.085h609.831c47.046 0 85.338 38.266 85.338 85.331v353.844l61.414 61.406c0 0 0 0 0 0.020 15.206 15.208 23.917 36.25 23.917 57.73 0 45.040-36.627 81.666-81.664 81.666zM896 277.312c0-23.52-19.123-42.662-42.669-42.662h-618.665c-5.667 0-11.084-2.253-15.084-6.253l-176.916-176.915v780.497c0 23.52 19.126 42.666 42.666 42.666h767.999c23.546 0 42.669-19.146 42.669-42.666v-14.572c-4.051-2.784-7.923-5.846-11.418-9.344l-232.122-232.084h-417.795c-11.792 0-21.334-9.542-21.334-21.334s9.542-21.334 21.334-21.334h383.57l-20.486-102.48c-1.416-7 0.792-14.23 5.834-19.27 4.042-4.042 9.5-6.25 15.084-6.25 1.376 0 2.792 0.146 4.166 0.416l106.625 21.334c4.166 0.834 7.962 2.854 10.918 5.834l155.622 155.6v-311.183zM714.79 467.624l-68.915-13.792 13.792 69 193.658 193.656 55.174-55.174-193.709-193.69zM969.914 722.728l-31.245-31.25-55.181 55.178 31.258 31.26c7.251 7.229 17.293 11.396 27.584 11.396 21.504 0 39.002-17.5 39.002-39 0-10.25-4.166-20.314-11.418-27.584z" />
<glyph unicode="&#xe943;" glyph-name="upload" d="M944 334.713v-278.001c0-22.059-17.946-39.996-39.996-39.996h-784.004c-22.056 0-40 17.937-40 39.996v278.001h-80v-278.001c0-66.167 53.832-119.996 120-119.996h784.004c66.167 0 119.996 53.828 119.996 119.996v278.001h-80zM512.11 959.286l-248.568-248.568 56.568-56.567 152 152v-623.433h80v623.433l152-152 56.567 56.567-248.567 248.568z" />
<glyph unicode="&#xe944;" glyph-name="edit" d="M841.133 447.992c-20.198 0-36.576-16.373-36.576-36.572v-365.706c0-20.198-16.371-36.576-36.57-36.576h-658.275c-20.198 0-36.572 16.378-36.572 36.576v731.416c0 20.198 16.373 36.572 36.572 36.572h438.851c20.198 0 36.572 16.374 36.572 36.572s-16.374 36.57-36.572 36.57h-438.851c-60.593 0-109.713-49.12-109.713-109.713v-731.416c0-60.595 49.12-109.715 109.713-109.715h658.275c60.595 0 109.715 49.12 109.715 109.715v365.708c0 20.196-16.371 36.57-36.57 36.57zM982.912 918.99c-26.259 26.263-61.875 41.014-99.008 41.009-37.158 0.107-72.813-14.67-99.002-41.033l-481.712-481.674c-3.996-4.026-7.011-8.92-8.813-14.299l-73.141-219.429c-6.383-19.162 3.977-39.866 23.14-46.253 3.718-1.235 7.612-1.869 11.528-1.869 3.926 0.006 7.828 0.634 11.556 1.862l219.425 73.139c5.389 1.798 10.286 4.832 14.3 8.851l481.713 481.711c54.675 54.668 54.682 143.308 0.013 197.983zM931.187 772.684l-475.423-475.423-142.042-47.43 47.286 141.859 475.606 475.421c26.144 26.095 68.499 26.052 94.592-0.094 12.467-12.491 19.494-29.4 19.546-47.046 0.045-17.741-7.002-34.763-19.565-47.286z" />
<glyph unicode="&#xe945;" glyph-name="mail-notify" d="M984 256c22.093 0 40 17.907 40 40v278.592c0 54.812-27.558 105.182-73.722 134.742l-96.275 61.652v149.014c0 22.092-17.914 40-40 40h-604.003c-22.092 0-40-17.908-40-40v-148.846l-96.216-61.546c-46.2-29.555-73.784-79.939-73.784-134.784v-478.824c0-88.224 71.776-160 160-160h704c88.224 0 160 71.776 160 160 0 22.093-17.907 40-40 40s-40-17.907-40-40c0-44.109-35.891-80-80-80h-704c-44.112 0-80 35.891-80 80v426.654l276.838-172.596c6.584-4.106 13.898-6.062 21.124-6.062 13.35 0 26.397 6.682 33.982 18.844 11.688 18.746 5.965 43.418-12.782 55.106l-149.162 92.994v369.060h524.003v-368.512l-151.087-93.712c-18.774-11.644-24.552-36.302-12.908-55.076 7.574-12.208 20.648-18.922 34.031-18.922 7.194 0 14.483 1.942 21.043 6.014l278.918 173.002v-226.794c0-22.093 17.907-40 40-40zM88.844 611.414c6.348 12.35 15.892 23.028 28.046 30.803l53.11 33.972v-115.372l-81.156 50.598zM854.003 675.99l53.139-34.028c12.070-7.731 21.568-18.326 27.91-30.58l-81.050-50.272v114.88zM550 324c0-22.093-17.908-40-40-40s-40 17.907-40 40c0 22.092 17.908 40 40 40s40-17.908 40-40zM551.988 452c0-22.092-17.908-40-40-40s-40 17.908-40 40v24c0 45.062 26.478 85.482 67.454 102.976 25.502 10.886 42.1 35.64 42.548 63.286-0.010 0.39-0.016 0.784-0.016 1.178 0 38.446-30.742 68.56-69.986 68.56s-69.988-30.116-69.988-68.56c0-22.092-17.908-40-40-40s-40 17.908-40 40c0 40.112 15.692 77.616 44.188 105.598 28.21 27.704 65.784 42.962 105.8 42.962s77.59-15.258 105.8-42.962c28.087-27.586 43.735-64.422 44.177-103.888 0.026-0.562 0.038-1.13 0.038-1.7 0.013-60.216-35.767-114.402-91.151-138.046-11.46-4.892-18.866-16.434-18.866-29.402v-24.002h0.002z" />
<glyph unicode="&#xe946;" glyph-name="attach" d="M971.503 587.266l-520.412-514.63c-86.229-85.282-226.046-85.282-312.276 0-86.228 85.274-86.228 223.52 0 308.799l468.396 463.165c57.498 56.841 150.673 56.841 208.172 0 57.5-56.84 57.5-149.029 0-205.868l-468.396-463.167c-28.731-28.44-75.337-28.44-104.104 0-28.731 28.401-28.731 74.494 0 102.934l416.344 411.701-52.052 51.466-416.305-411.736c-57.498-56.841-57.498-149.029 0-205.868 57.498-56.845 150.673-56.845 208.171 0l468.4 463.167c86.229 85.278 86.229 223.523 0 308.802-86.234 85.278-226.049 85.278-312.278 0l-494.423-488.899 1.792-1.79c-89.812-114.192-81.917-279.269 24.235-384.213 106.151-104.943 273.016-112.802 388.524-23.945l1.791-1.792 546.434 540.371-52.011 51.503z" />
<glyph unicode="&#xe947;" glyph-name="date-2" d="M256.169 959.916c-20.195 0-36.566-16.371-36.566-36.566v-73.13h73.13v73.13c0 20.195-16.371 36.566-36.564 36.566zM768.070 959.926c-20.198 0-36.57-16.371-36.57-36.566v-73.13h73.133v73.13c0 20.195-16.371 36.566-36.563 36.566zM914.221 850.23h-109.696v-146.262c0-20.195-16.371-36.566-36.57-36.566-20.192 0-36.563 16.371-36.563 36.566v146.262h-438.786v-146.262c0-20.195-16.371-36.566-36.566-36.566s-36.566 16.371-36.566 36.566v146.262h-109.694c-60.583 0-109.696-49.112-109.696-109.696v-694.742c0-60.589 49.113-109.696 109.696-109.696h804.442c60.582 0 109.696 49.107 109.696 109.696v694.742c0 60.584-49.114 109.696-109.696 109.696zM950.784 45.792c0-20.198-16.371-36.57-36.563-36.57h-804.442c-20.195 0-36.566 16.371-36.566 36.57v475.349h877.571v-475.349zM452.054 64.73c-4.887-4.915-11.555-7.654-18.482-7.654s-13.594 2.739-18.482 7.654l-147.602 147.629c-15.318 15.315-15.318 40.154 0 55.443l18.482 18.49c15.323 15.315 40.133 15.315 55.451 0l92.151-92.16 249.007 249.013c15.322 15.318 40.154 15.318 55.45 0l18.483-18.486c15.315-15.318 15.315-40.152 0-55.446l-304.458-304.483z" />
<glyph unicode="&#xe948;" glyph-name="date-1" horiz-adv-x="964" d="M241.1 944.862c-19.007 0-34.415-15.408-34.415-34.415v-68.829h68.828v68.829c0 19.007-15.408 34.415-34.413 34.415zM722.89 944.871c-19.010 0-34.418-15.408-34.418-34.415v-68.829h68.831v68.829c0 19.007-15.408 34.415-34.412 34.415zM860.443 841.629h-103.243v-137.659c0-19.007-15.408-34.415-34.418-34.415-19.004 0-34.412 15.408-34.412 34.415v137.659h-412.975v-137.659c0-19.007-15.408-34.415-34.415-34.415s-34.415 15.408-34.415 34.415v137.659h-103.241c-57.020 0-103.244-46.223-103.244-103.243v-653.875c0-57.025 46.224-103.243 103.244-103.243h757.121c57.019 0 103.243 46.219 103.243 103.243v653.875c0 57.020-46.225 103.243-103.243 103.243zM894.856 84.51c0-19.010-15.408-34.418-34.412-34.418h-757.121c-19.007 0-34.415 15.408-34.415 34.418v447.387h825.949v-447.387zM295.699 488.614c14.114 14.114 36.998 14.114 51.111 0.001l135.073-135.070 135.070 135.070c14.119 14.114 37.003 14.114 51.116-0.001s14.113-36.998 0-51.111l-135.075-135.073 135.075-135.066c14.113-14.113 14.113-36.997 0-51.116-14.113-14.113-36.997-14.113-51.116 0l-135.070 135.072-135.073-135.072c-14.114-14.113-36.997-14.113-51.111 0-14.114 14.119-14.114 37.003 0.001 51.116l135.072 135.066-135.072 135.073c-14.114 14.114-14.114 36.997-0.001 51.111z" />
<glyph unicode="&#xe949;" glyph-name="warning" d="M1002.726 192.102l-361.728 664.952c-58.118 97.842-199.792 97.972-257.988 0l-361.712-664.952c-59.412-99.981 12.518-226.579 128.964-226.579h723.472c116.346 0 188.403 126.496 128.992 226.579zM512.004 85.523c-33.076 0-60 26.918-60 60 0 33.075 26.924 60 60 60s60-26.925 60-60c0-33.082-26.924-60-60-60zM572.004 325.52c0-33.078-26.924-59.997-60-59.997s-60 26.918-60 59.997v300c0 33.076 26.924 60 60 60s60-26.924 60-60v-300z" />
<glyph unicode="&#xe94a;" glyph-name="checked-4" d="M512 960c-282.306 0-512-229.694-512-512 0-282.304 229.694-512 512-512 282.304 0 512 229.696 512 512 0 282.306-229.696 512-512 512zM798.157 582.737l-327.219-324.65c-19.247-19.251-50.045-20.531-70.577-1.284l-173.233 157.833c-20.531 19.251-21.815 51.332-3.85 71.863 19.248 20.531 51.328 21.811 71.86 2.564l137.302-125.756 292.574 292.573c20.531 20.531 52.612 20.531 73.143 0s20.531-52.611 0-73.143z" />
<glyph unicode="&#xe94b;" d="M1024 448c0-282.77-229.23-512-512-512s-512 229.23-512 512c0 282.77 229.23 512 512 512s512-229.23 512-512z" />
<glyph unicode="&#xe94c;" d="M789.363 480h-0.030c-4.203-0.004-8.363-0.836-12.245-2.445-3.878-1.613-7.407-3.972-10.377-6.946s-5.321-6.507-6.925-10.389c-1.609-3.883-2.432-8.047-2.428-12.25-0.038-44.86-12.378-88.853-35.669-127.198-23.292-38.34-56.649-69.564-96.444-90.278-39.795-20.71-84.506-30.118-129.276-27.2-44.766 2.918-87.878 18.057-124.646 43.759-110.8 77.585-137.825 230.848-60.241 341.651 77.584 110.801 230.848 137.829 341.649 60.243 16.764-11.707 31.996-25.462 45.35-40.947h-90.057c-8.486 0-16.623-3.372-22.626-9.373-5.999-6.001-9.374-14.141-9.374-22.627s3.375-16.626 9.374-22.627c6.003-6.001 14.14-9.373 22.626-9.373h149.333c8.491 0 16.627 3.372 22.63 9.373 5.999 6.001 9.37 14.141 9.37 22.627v149.333c0 8.487-3.371 16.626-9.37 22.627-6.003 6.001-14.14 9.373-22.63 9.373-8.486 0-16.623-3.372-22.626-9.373-5.999-6.001-9.374-14.141-9.374-22.627v-53.289c-11.226 10.655-23.236 20.46-35.917 29.333-33.276 23.298-70.81 39.814-110.468 48.606-39.654 8.791-80.657 9.686-120.657 2.633-40.003-7.054-78.225-21.917-112.483-43.742s-63.881-50.184-87.18-83.457c-47.053-67.199-65.484-150.336-51.238-231.125s60-152.61 127.199-199.663c51.738-36.442 113.474-56.009 176.757-56.017 18.227 0.009 36.416 1.604 54.366 4.779 71.62 12.634 136.499 50.095 183.245 105.805s72.371 126.11 72.375 198.835c-0.004 8.478-3.379 16.61-9.378 22.609-6.003 5.995-14.135 9.361-22.618 9.361z" />
<glyph unicode="&#xe94d;" d="M535.272 960c-25.706 0-46.546-20.84-46.546-46.546v-186.182c0-25.706 20.84-46.547 46.546-46.547s46.546 20.84 46.546 46.547v186.182c0 25.706-20.84 46.546-46.546 46.546z" />
<glyph unicode="&#xe94e;" d="M535.276 215.264c-25.706 0-46.546-20.838-46.546-46.547v-186.176c0-25.709 20.84-46.547 46.546-46.547s46.547 20.838 46.547 46.547v186.176c0 25.709-20.84 46.547-46.547 46.547z" />
<glyph unicode="&#xe94f;" d="M370.71 678.382l-131.652 131.656c-18.172 18.178-47.644 18.178-65.824 0-18.178-18.178-18.178-47.648 0-65.824l131.652-131.656c9.088-9.088 21.002-13.634 32.91-13.634 11.91 0 23.827 4.546 32.91 13.634 18.182 18.179 18.182 47.646 0.004 65.824z" />
<glyph unicode="&#xe950;" d="M954.182 494.547h-93.088c-25.709 0-46.547-20.84-46.547-46.545s20.838-46.545 46.547-46.545h93.088c25.702 0 46.547 20.84 46.547 46.545s-20.845 46.545-46.547 46.545z" />
<glyph unicode="&#xe951;" d="M765.658 283.43c-18.17 18.176-47.642 18.176-65.824 0-18.176-18.176-18.17-47.648 0-65.824l131.661-131.648c9.088-9.088 20.998-13.632 32.909-13.632 11.917 0 23.827 4.544 32.915 13.632 18.176 18.176 18.176 47.648 0 65.824l-131.661 131.648z" />
<glyph unicode="&#xe952;" d="M302.545 448.001c0 25.706-20.84 46.545-46.546 46.545h-186.182c-25.706 0-46.546-20.84-46.546-46.545s20.84-46.545 46.546-46.545h186.182c25.706 0 46.546 20.84 46.546 46.545z" />
<glyph unicode="&#xe953;" d="M370.71 283.443c-18.174 18.182-47.648 18.182-65.824 0l-131.65-131.648c-18.178-18.176-18.178-47.648 0-65.824 9.088-9.088 21.002-13.632 32.914-13.632s23.826 4.544 32.91 13.632l131.65 131.648c18.178 18.176 18.178 47.648 0 65.824z" />
<glyph unicode="&#xe954;" glyph-name="frame" d="M202.671 789.328c-64.422 0-117.334-52.911-117.334-117.333v-501.332h-10.666c-4.241 0.058-8.451-0.723-12.385-2.304s-7.516-3.93-10.536-6.906c-3.020-2.982-5.418-6.528-7.055-10.438s-2.48-8.115-2.48-12.352c0-4.243 0.843-8.442 2.48-12.352s4.035-7.462 7.055-10.438c3.020-2.976 6.601-5.325 10.536-6.906s8.145-2.368 12.385-2.304h874.667c4.243-0.064 8.448 0.723 12.384 2.304s7.52 3.93 10.534 6.906c3.021 2.976 5.421 6.528 7.059 10.438 1.632 3.91 2.477 8.109 2.477 12.352 0 4.237-0.845 8.442-2.477 12.352-1.638 3.91-4.038 7.456-7.059 10.438-3.014 2.976-6.598 5.325-10.534 6.906s-8.141 2.362-12.384 2.304h-10.669v501.332c0 64.422-52.909 117.333-117.331 117.333h-618.667zM202.671 725.328h618.667c29.83 0 53.331-23.505 53.331-53.333v-501.332h-725.332v501.332c0 29.828 23.505 53.333 53.334 53.333zM756.71 597.62c-8.307-0.243-16.198-3.709-21.997-9.667l-169.376-169.375-105.375 105.375c-6.001 5.999-14.14 9.369-22.625 9.369s-16.624-3.37-22.625-9.369l-170.667-170.667c-3.071-2.948-5.523-6.481-7.212-10.388s-2.582-8.114-2.625-12.371c-0.044-4.257 0.763-8.481 2.372-12.421 1.609-3.942 3.988-7.526 6.999-10.534s6.591-5.389 10.533-7.002c3.942-1.606 8.164-2.413 12.422-2.368 4.257 0.038 8.463 0.934 12.371 2.624s7.44 4.141 10.388 7.213l148.042 148.040 105.375-105.375c6.001-5.999 14.14-9.369 22.625-9.369s16.623 3.37 22.625 9.369l191.999 192c4.614 4.496 7.77 10.281 9.043 16.598s0.614 12.872-1.901 18.806c-2.509 5.934-6.758 10.972-12.179 14.453s-11.77 5.245-18.214 5.060v0zM650.669 277.331c-4.237 0.058-8.448-0.73-12.383-2.31s-7.517-3.923-10.536-6.906c-3.020-2.976-5.418-6.522-7.055-10.438-1.636-3.91-2.479-8.109-2.479-12.346 0-4.243 0.843-8.442 2.479-12.352 1.636-3.917 4.035-7.462 7.055-10.438 3.020-2.982 6.601-5.325 10.536-6.906s8.147-2.368 12.383-2.304h106.669c4.243-0.064 8.448 0.723 12.384 2.304s7.52 3.923 10.534 6.906c3.021 2.976 5.421 6.522 7.059 10.438 1.632 3.91 2.477 8.109 2.477 12.352 0 4.237-0.845 8.435-2.477 12.346-1.638 3.917-4.038 7.462-7.059 10.438-3.014 2.982-6.598 5.325-10.534 6.906s-8.141 2.368-12.384 2.31h-106.669z" />
<glyph unicode="&#xe955;" glyph-name="copy" d="M661.338 917.328c23.469 0 42.669-19.2 42.669-42.666s-19.2-42.667-42.669-42.667h-426.666c-23.467 0-42.667-19.2-42.667-42.667v-511.997c0-23.469-19.2-42.669-42.667-42.669s-42.666 19.2-42.666 42.669v554.664c0 46.933 38.4 85.333 85.333 85.333h469.332zM832.006 746.662c46.931 0 85.331-38.4 85.331-85.334v-597.334c0-46.931-38.4-85.331-85.331-85.331h-469.334c-46.934 0-85.333 38.4-85.333 85.331v597.334c0 46.934 38.399 85.334 85.333 85.334h469.334zM405.338 63.994h383.999c23.469 0 42.669 19.2 42.669 42.669v511.999c0 23.466-19.2 42.666-42.669 42.666h-383.999c-23.466 0-42.666-19.2-42.666-42.666v-511.999c0-23.469 19.2-42.669 42.666-42.669z" />
<glyph unicode="&#xea03;" glyph-name="magnifier" d="M902.508 250.883c162.002 162.005 162 425.608 0 587.613-162.005 162.005-425.606 162.005-587.608 0-137.438-137.44-158.254-341.848-62.5-501.466 0 0 6.878-11.54-2.412-20.821-52.995-52.992-211.988-211.988-211.988-211.988-42.194-42.192-52.239-101.191-14.821-138.615l6.442-6.434c37.418-37.424 96.419-27.383 138.611 14.811 0 0 158.657 158.66 211.541 211.541 9.737 9.734 21.271 2.856 21.271 2.856 159.619-95.75 364.026-74.937 501.464 62.504zM391.609 327.595c-119.704 119.706-119.7 314.476 0.006 434.182 119.706 119.702 314.476 119.705 434.179 0 119.706-119.703 119.706-314.477 0-434.182-119.706-119.7-314.473-119.7-434.185 0zM418.113 569.301c-5.572 0-11.236 1.095-16.694 3.402-21.808 9.227-32.011 34.392-22.781 56.203 58.010 137.093 216.738 201.428 353.826 143.416 21.808-9.23 32.011-34.393 22.781-56.204-9.233-21.811-34.389-32.008-56.206-22.781-93.534 39.578-201.839-4.318-241.414-97.85-6.923-16.358-22.804-26.186-39.512-26.186z" />
</font>
</defs>
</svg>
